Скачать через торрент Семь смертных грехов Nanatsu no Taizai бесплатно Аниме Все серии на русском torrent

Если у вас наблюдаются проблемы со скриншотами, переходом по ссылками, скачиванием торрентов - проблемы в блокировщике рекламы AdBlock. #хорошегоДня!


Статистика раздачи
Размер:  408 MB   |    Зарегистрирован:  3 года 2 месяца   |    .torrent скачан:  37 раз   |   
Раздают:  1  
   
Загрузка...
 
Автор Сообщение

Galfimbul

avatar Galfimbul


Семь смертных грехов | Nanatsu no Taizai | The Seven Deadly Sins


Год выпуска: 2014
Страна: Япония
Жанр: приключения.
Режиссёр: Окамура Тэнсай.
Студия: A-1 Pictures Inc. (подробнее...)

Перевод:
Русские субтитры: [Fratelli]
Озвучка: одноголосая (муж.) JAM [AniDub] [Сэмпл]
Описание: Могущественный орден Святых рыцарей, которых почитают как великих героев, совершает государственный переворот с целью установить в королевстве свою диктатуру. Дочь плененного короля отправляется в путешествие, чтобы отыскать последнюю надежду на спасение - членов легендарного рыцарского ордена "Семь Смертных Грехов", которых считают величайшими преступниками этой эпохи...World Art.
Качество: HDTVRip | Формат: MP4 | Тип видео: без хардсаба | Продолжительность: ТВ (24 эп.), 25 мин. | Видео: [Leopard-Raws]
Видео кодек: H.264
Аудио кодек: AAC
Видео: H.264; 1280x720; ~1942Kbps, 23.976fps; (8 bit)
Аудио №1: JAP, AAC; 48000Hz; ~192Kbps (2ch);
Аудио №2: RUS, AAC; 48000Hz; ~192Kbps (2ch); (внешним файлом)
[spoiler="Скриншоты [превью]"] [/spoiler]
01.The Seven Deadly Sins.

Общее
Полное имя : C:\Users\Home PC\Videos\Раздачи\Nanatsu no Taizai\Nanatsu no Taizai - 01.mp4
Формат : MPEG-4
Профиль формата : Base Media
Идентификатор кодека : isom
Размер файла : 375 Мбайт
Продолжительность : 24 м.
Режим общего битрейта : Переменный
Общий поток : 2137 Кбит/сек
Дата кодирования : UTC 2014-10-05 16:47:49
Дата пометки : UTC 2014-10-05 16:47:49

Видео
Идентификатор : 1
Формат : AVC
Формат/Информация : Advanced Video Codec
Профиль формата : High@L4.1
Параметр CABAC формата : Да
Параметр ReFrames формата : 4 кадра
Идентификатор кодека : avc1
Идентификатор кодека/Информация : Advanced Video Coding
Продолжительность : 24 м.
Битрейт : 1942 Кбит/сек
Максимальный битрейт : 12,4 Мбит/сек
Ширина : 1280 пикселей
Высота : 720 пикселей
Соотношение сторон : 16:9
Режим частоты кадров : Постоянный
Частота кадров : 23,976 кадра/сек
Цветовое пространство : YUV
Субдискретизация насыщенности : 4:2:0
Битовая глубина : 8 бит
Тип развёртки : Прогрессивная
Бит/(Пиксели*Кадры) : 0.088
Размер потока : 340 Мбайт (91%)
Заголовок : 264:fps=23.976@GPAC0.5.1-DEV-rev4283
Библиотека кодирования : x264 core 129 r2245+729M 1a52e03
Настройки программы : cabac=1 / ref=4 / deblock=1:1:-1 / analyse=0x3:0x113 / me=umh / subme=9 / psy=1 / fade_compensate=0.00 / psy_rd=1.00:0.00 / mixed_ref=1 / me_range=24 / chroma_me=1 / trellis=2 / 8x8dct=1 / cqm=0 / deadzone=21,11 / fast_pskip=1 / chroma_qp_offset=-2 / threads=8 / lookahead_threads=1 / sliced_threads=0 / nr=0 / decimate=1 / interlaced=0 / bluray_compat=0 / constrained_intra=0 / fgo=0 / bframes=9 / b_pyramid=2 / b_adapt=2 / b_bias=0 / direct=1 / weightb=1 / open_gop=0 / weightp=2 / keyint=240 / keyint_min=24 / scenecut=40 / intra_refresh=0 / rc=crf / mbtree=0 / crf=18.5 / qcomp=0.72 / qpmin=0 / qpmax=69 / qpstep=4 / ip_ratio=1.40 / pb_ratio=1.30 / aq=1:0.85
Дата кодирования : UTC 2014-10-05 16:47:49
Дата пометки : UTC 2014-10-05 16:47:54
Основные цвета : BT.709
Характеристики трансфера : BT.709
Коэффициенты матрицы : BT.709

Аудио
Идентификатор : 2
Формат : AAC
Формат/Информация : Advanced Audio Codec
Профиль формата : LC
Идентификатор кодека : 40
Продолжительность : 24 м.
Вид битрейта : Переменный
Битрейт : 192 Кбит/сек
Максимальный битрейт : 221 Кбит/сек
Каналы : 2 канала
Расположение каналов : Front: L R
Частота : 48,0 КГц
Метод сжатия : С потерями
Размер потока : 33,6 Мбайт (9%)
Язык : Japanese
Дата кодирования : UTC 2014-10-05 14:30:05
Дата пометки : UTC 2014-10-05 16:47:54

Внимание! Это обновляемая раздача. Серии добавляются по мере выхода русских субтитров.
Торрент обновлён. Добавлена озвучка.[06.10.2014]


Трекер:  [ 06-Окт-2014 20:00 ]

  

Скачать .torrent

Размер .torrent файла 16 KB


Размер: 408 MB
Хэш (hash) релиза: 82dda6c93fe985129949933548c94f8fd0d63baf
Подписка на обновления:

Торренты, похожие на Семь смертных грехов Nanatsu no Taizai скачать торрент

Форум Название Автор Размер S L Добавлен
Аниме | HD Rips ·· Семь смертных грехов / Nanatsu no Taizai / The Seven Deadly Sins (Окамура Тэнсай) [TV] [без хардсаба] [06 из 24] [RUS(ext), JAP+SUB] [2014 г., приключения, фэнтези, BDRemux] [1080p] Galfimbul 4179185146038.92 GB 0 0 1425222992

18:16

1-Мар-15

Аниме | HD Rips ·· Семь смертных грехов / Nanatsu no Taizai / The Seven Deadly Sins (Окамура Тэнсай) [TV] [без хардсаба] [3 из 24] [JAP+SUB] & [2 из 24] [RUS(ext] [2014 г., приключения, HDTVRip] [720p] Galfimbul 13105815391.22 GB 0 0 1413745585

22:06

19-Окт-14

Аниме | Rips ·· Семь смертных грехов / Nanatsu no Taizai / The Seven Deadly Sins / Nanadai [TV] [1 из 24] [Без хардсаба] [JAP, RUS(ext), SUB] [2014 г., экшен, приключения, фэнтези, сёнен, сверхъестественное, HDTVRip] [720p] Galfimbul 427761922408 MB 0 0 1412806106

01:08

9-Окт-14

Аниме | Rips ·· Семь Смертных Грехов / Nanatsu no Taizai The Seven Deadly Sins (Окамура Тэнсай) [TV] [01 из 12] [без хардсаба] [RUS(int), JAP+SUB] [2014 г., экшен, приключения, этти, фэнтези, сёнен, сверхъестественное, HDTVRip] [720p] Galfimbul 420375873401 MB 0 0 1412800524

23:35

8-Окт-14

Аниме | Rips ·· Семь смертных грехов / Nanatsu no Taizai: The Seven Deadly Sins [TV] [1 из 24] [Без хардсаба] [RUS(int), JAP+SUB] [2014 г., приключения, HDTVRip] [720p] Galfimbul 458094451437 MB 0 0 1412779581

17:46

8-Окт-14

Аниме | HD Rips ·· Семь смертных грехов / Nanatsu no Taizai / The Seven Deadly Sins (Окамура Тэнсай) [TV] [1 из >12] [без хардсаба] [JAP+SUB] [2014 г., приключения, HDTVRip] [720p] Galfimbul 392768102375 MB 0 0 1412544732

00:32

6-Окт-14

Аниме | HD Rips ·· Семь смертных грехов / Nanatsu no Taizai: The Seven Deadly Sins [TV] [без хардсаба] [JAP+SUB] [1 из >12] [2014 г., приключения, HDTVRip] [720p] Galfimbul 392768283375 MB 0 0 1412544716

00:31

6-Окт-14

Манга ·· SUZUKI Nakaba - Семь Смертных Грехов / Nanatsu no Taizai / The Seven Deadly Sins [manga+one-shot+extra] [1-39+1+1] [2012 г., сенен, фентези, экшен] [incomplete] Polarnik 349350737333 MB 0 0 1375281988

17:46

31-Июл-13

Аниме | Rips ·· Семь Смертных Грехов ОВА / Nanatsu no Taizai The Seven Deadly Sins OVA (Окамура Тэнсай) [OVA] [1-2 из 2] [без хардсаба] [RUS(int), JAP+SUB] [2015 г., экшен, приключения, этти, фэнтези, сёнен, сверхъестественное, DVDRip] [576p] Galfimbul 616205644588 MB 0 0 1460111317

13:28

8-Апр-16

Аниме | Rips ·· Семь смертных грехов: Бандит Бан / Nanatsu no Taizai: Ban no Bangai-hen / The Seven Deadly Sins: Ban's Side Story [OVA] [1 из 2] [Без хардсаба] [JAP, SUB] [2015 г., Приключения, комедия, фэнтези, DVDRip] Galfimbul 9605660092 MB 0 0 1435255164

20:59

25-Июн-15

Аниме | Rips ·· Семь смертных грехов: Бандит Бан / Nanatsu no Taizai OVA / The Seven Deadly Sins [OVA] [1 из 2] [Без хардсаба] [JAP] [2015 г., Приключения, комедия, фэнтези, DVDRip] Galfimbul 9605640592 MB 0 0 1435186760

01:59

25-Июн-15

Еще никто не оставлял запись к записи скачать торрент Семь смертных грехов Nanatsu no Taizai . Будь первым!

!Обратная связь