Скачать через торрент Я не понимаю, что говорит мой муж Danna ga Nani o Itteiru ka Wakaranai Ken бесплатно Аниме Все серии на русском torrent

Если у вас наблюдаются проблемы со скриншотами, переходом по ссылками, скачиванием торрентов - проблемы в блокировщике рекламы AdBlock. #хорошегоДня!


Статистика раздачи
Размер:  34 MB   |    Зарегистрирован:  3 года 2 месяца   |    .torrent скачан:  36 раз   |   
Раздают:  1  
   
Загрузка...
 
Автор Сообщение

Galfimbul

avatar Galfimbul


Я не понимаю, что говорит мой муж / Danna ga Nani o Itteiru ka Wakaranai Ken

Страна: Япония
Год выпуска: 2014 г.
Жанр: комедия, повседневность
Тип: TV
Продолжительность: 01 ~ 3 мин
Режиссер: Нагай Шимпей
Студия:
Перевод: 2-х голосый Кошка Бестия & codevip (жен./муж.) (скачать сэмпл)

Описание: История повествует о повседневной жизни серьёзной, трудолюбивой офисной работницы по имени Каору и её муже-отаку, Хадзимэ, который полностью поглощён огромной сетевой доской объявлений.
Качество: HDTVRip
Тип релиза: Без хардсаба
Формат видео: MKV
Наличие линковки: Нет
Видео: H264 Mpeg4 (AVC), 1280x720, 10bits, 964bps, 23.976fps
Аудио 1: AC3, 192 kbps, 48.0 KHz, 2ch (в составе контейнера)
Аудио 2: AC3, 192 kbps, 48.0 KHz, 2ch (в составе контейнера)
Субтитры: ASS, софтсаб, форсированные, встроенные от AOS FanSUB
Уникальный идентификатор : 207316029092598674860631056326958487518 (0x9BF79D66076D13FCACB4F7A7F4CF97DE)Полное имя : C:\Users\Самый Главный\Desktop\АНИМЕ\Отаку!!!\0\Dana - 1_rus.mkvФормат : MatroskaВерсия формата : Version 2Размер файла : 34,4 МбайтПродолжительность : 3 м. 30 с.Общий поток : 1375 Кбит/секНазвание фильма : Episode 01 - "Mismatched Hobbies and Deception"Дата кодирования : UTC 2014-10-07 09:24:55Программа кодирования : mkvmerge v4.9.1 ('Ich will') сборка от Jul 11 2011 23:53:15Библиотека кодирования : libebml v1.2.1 + libmatroska v1.1.1Attachment : Yes / Yes / Yes / Yes / Yes / Yes / Yes / Yes / Yes / Yes / Yes / Yes / Yes

ВидеоИдентификатор : 1Формат : AVCФормат/Информация : Advanced Video CodecПрофиль формата : High 10@L5.0Параметр CABAC формата : ДаПараметр ReFrames формата : 16 кадровИдентификатор кодека : V_MPEG4/ISO/AVCПродолжительность : 3 м. 30 с.Битрейт : 964 Кбит/секШирина : 1280 пикселейВысота : 720 пикселейСоотношение сторон : 16:9Режим частоты кадров : ПостоянныйЧастота кадров : 23,976 кадра/секЦветовое пространство : YUVСубдискретизация насыщенности : 4:2:0Битовая глубина : 10 битТип развёртки : ПрогрессивнаяБит/(Пиксели*Кадры) : 0.044Размер потока : 24,1 Мбайт (70%)Заголовок : Danna - 1Библиотека кодирования : x264 core 142 r2431+42 c69a006 tMod [10-bit@4:2:0 X86_64]Настройки программы : cabac=1 / ref=16 / deblock=1:0:0 / analyse=0x3:0x133 / me=umh / subme=10 / psy=1 / fade_compensate=0.75 / psy_rd=0.75:0.00 / mixed_ref=1 / me_range=24 / chroma_me=1 / trellis=2 / 8x8dct=1 / cqm=0 / deadzone=21,11 / fast_pskip=1 / chroma_qp_offset=-2 / threads=12 / lookahead_threads=3 / sliced_threads=0 / nr=0 / decimate=1 / interlaced=0 / bluray_compat=0 / constrained_intra=0 / fgo=0 / bframes=10 / b_pyramid=2 / b_adapt=2 / b_bias=0 / direct=3 / weightb=1 / open_gop=0 / weightp=2 / keyint=250 / keyint_min=23 / scenecut=40 / intra_refresh=0 / rc_lookahead=60 / rc=crf / mbtree=1 / crf=16.0000 / qcomp=0.75 / qpmin=0:0:0 / qpmax=81:81:81 / qpstep=4 / ip_ratio=1.40 / aq=3:0.75 / aq-sensitivity=10.00 / aq-factor=1.00:1.00:1.00 / aq2=0 / aq3=0Язык : JapaneseDefault : ДаForced : НетКоэффициенты матрицы : BT.709

Аудио #1Идентификатор : 2Формат : AC-3Формат/Информация : Audio Coding 3Расширение режима : CM (complete main)Параметр Endianness формата : BigИдентификатор кодека : A_AC3Продолжительность : 3 м. 30 с.Вид битрейта : ПостоянныйБитрейт : 192 Кбит/секКаналы : 2 каналаРасположение каналов : Front: L RЧастота : 48,0 КГцБитовая глубина : 16 битМетод сжатия : С потерямиРазмер потока : 4,81 Мбайт (14%)Заголовок : Koshka Bestiya & codevipЯзык : RussianDefault : ДаForced : Нет

Аудио #2Идентификатор : 3Формат : AC-3Формат/Информация : Audio Coding 3Расширение режима : CM (complete main)Параметр Endianness формата : BigИдентификатор кодека : A_AC3Продолжительность : 3 м. 30 с.Вид битрейта : ПостоянныйБитрейт : 192 Кбит/секКаналы : 2 каналаРасположение каналов : Front: L RЧастота : 48,0 КГцБитовая глубина : 16 битМетод сжатия : С потерямиРазмер потока : 4,81 Мбайт (14%)Заголовок : origЯзык : JapaneseDefault : НетForced : Нет

Текст #1Идентификатор : 4Формат : ASSИдентификатор кодека : S_TEXT/ASSИдентификатор кодека/Информация : Advanced Sub Station AlphaМетод сжатия : Без потерьЗаголовок : nadpisiЯзык : RussianDefault : ДаForced : Нет

Текст #2Идентификатор : 5Формат : ASSИдентификатор кодека : S_TEXT/ASSИдентификатор кодека/Информация : Advanced Sub Station AlphaМетод сжатия : Без потерьЗаголовок : alkoponeЯзык : RussianDefault : НетForced : Нет
01. Несогласованное хобби и заблуждение / Conflicting hobbies and addiction
[url]...4837743[/url] - альтернативный перевод, наличие русской озвучки.
[url=...4786216]Карин / Karin [TV] [в работе] [два голоса][/url]
[url=...4723615]Ходячие мертвецы - Веб эпизоды / The Walking Dead - Webisodes [3 цикла из 3] [два голоса][/url]
[url=...4749932]12 лет / 12 Sai [OVA] [1 из 1] [два голоса][/url]
[url=...4673141]Наброски Хидамари: Выпускной Саэ и Хиро / Hidamari Sketch: Sae Hiro Sotsugyou Hen [OVA] [2 из 2] [два голоса][/url]
[url=...4556050]В яблочко! / Kaichuu! [ONA] [4 из 4] [два голоса][/url]
[url=...4585603]Я люблю тебя, Судзуки!! / Suki Desu Suzuki-kun!! [OVA] [2 из 2] [два голоса][/url]
[url=...4544981]Речные заводи эпохи Темпо / Tenpou Suikoden Neo [TV] [5 из 5] [два голоса][/url]
[url=...4460311]Легенда об Ангеле / Angel Densetsu / Angel Legend [OVA] [2 из 2] [два голоса][/url]
[url=...4512724]С Днем Рождения! Жизнь Как Вспышка / Happy Birthday Inochi Kagayaku Toki [Movie] [два голоса][/url]
[url=...4534850]Привет Нанафа / Haitai Nanafa [TV] [13 из 13] [один голос] AVI[/url]
[url=...4588551]Привет Нанафа / Haitai Nanafa [TV] [13 из 13] [один голос] HDTV[/url]
[url=...4483785]Дни Мидори / Midori no hibi / Midori Days [TV] [13 из 13] [два голоса][/url]
[url=...4495120]Луна с востока, солнце с запада / Tsuki ha Higashi ni Hi ha Nishi ni: Operation Sanctuary [TV] [17 из 17] [два голоса][/url]


Трекер:  [ 07-Окт-2014 13:30 ]

  

Скачать .torrent

Размер .torrent файла 11 KB


Размер: 34 MB
Хэш (hash) релиза: 6cd026b293b823f4d9120cdd9f13b9d467d80c3a
Подписка на обновления:

Торренты, похожие на Я не понимаю, что говорит мой муж Danna ga Nani o Itteiru ka Wakaranai Ken скачать торрент

Форум Название Автор Размер S L Добавлен
Аниме | HD Rips ·· Я не понимаю, что говорит мой муж / Danna ga Nani o Itteiru ka Wakaranai Ken (Нагай Симпэй) [TV] [13 из 13] [Без хардсаба] [JAP+SUB] [2014 г., комедия, повседневность, BDRip] [1080p] Galfimbul 14412896141.34 GB 0 0 1422030190

19:23

23-Янв-15

Аниме | HD Rips ·· Я не понимаю, что говорит мой муж / Danna ga Nani o Itteiru ka Wakaranai Ken [TV] [13 из 13] [Без хардсаба] [JAP, SUB] [2014 г., повседневность, BDRip] [720p] Galfimbul 11234702221.05 GB 0 0 1421941789

18:49

22-Янв-15

Аниме | HD Rips ·· Я не понимаю, что говорит мой муж / Danna ga Nani o Itteiru ka Wakaranai Ken [TV] [1 из 13] [Без хардсаба] [JAP, SUB] [2014 г., повседневность, HDTVRip] [720p] Galfimbul 4201966140 MB 0 0 1412415075

12:31

4-Окт-14

Аниме | HD Rips ·· Я не понимаю, что говорит мой муж (второй сезон) / Danna ga Nani o Itteiru ka Wakaranai Ken 2 Sureme [TV] [2 из 13] [Без хардсаба] [JAP, SUB] [2015 г., повседневность, HDTVRip] [720p] Galfimbul 10088002196 MB 0 0 1428941921

19:18

13-Апр-15

Аниме | HD Rips ·· Я не понимаю, что говорит мой муж (тред второй) / Danna ga Nani o Itteiru ka Wakaranai Ken 2 Sureme [TV] [1 из 13] [Без хардсаба] [JAP, SUB] [2015 г., повседневность, HDTVRip] [720p] Galfimbul 5466493852 MB 0 0 1428232288

14:11

5-Апр-15

Еще никто не оставлял запись к записи скачать торрент Я не понимаю, что говорит мой муж Danna ga Nani o Itteiru ka Wakaranai Ken . Будь первым!

!Обратная связь