Скачать через торрент Гаро: Метка пламени Garo: Honoo no Kokuin бесплатно Аниме Все серии на русском torrent

Если у вас наблюдаются проблемы со скриншотами, переходом по ссылками, скачиванием торрентов - проблемы в блокировщике рекламы AdBlock. #хорошегоДня!


Статистика раздачи
Размер:  422 MB   |    Зарегистрирован:  3 года 2 месяца   |    .torrent скачан:  18 раз   |   
Раздают:  1  
   
Загрузка...
 
Автор Сообщение

Galfimbul

avatar Galfimbul


Гаро: Метка пламени / Garo: Honoo no Kokuin
Страна: Япония
Год выпуска: 2014 г.
Тип: TV
Жанр: Приключения, фэнтези
Продолжительность: 12 эп. по 25 мин

Перевод на русский: Shift
переводчик: General Tab
редактор: Evafan

Режиссер: Хаяси Юйтиро

Студия:

Описание: История начинается с того, что советник короля объявляет охоту на ведьм, тем самым подвергая опасности рыцарей и жрецов Макаи, которые должны защищать людей. Жрица Макаи, приговорённая к сожжению на костре, родила ребёнка, Леона Льюиса. Этого ребёнка спасает его отец, рыцарь Макаи, но Льюис растёт без матери. Повзрослев, как потомок золотых рыцарей, он наследует Золотую Броню. В то время, как король болеет, его советник захватывает власть и выгоняет принца Альфонсо вместе с его матерью. Принц отправляется на поиски легендарного золотого рыцаря в надежде вернуть своё королевство.

Равка: Leopard-Raws
Качество: HDTVRip
Хардсаб: Отсутствует
Формат видео: mp4
Видео: AVC, 8 bits, 1280x720, 2227 kbps, 23.976 fps, (16:9)
Аудио:
1. JP - AAC, 192 kbps, 48.0 KHz, 2 ch
01. Адское пламя
Общее
Полное имя : D:\[Leopard-Raws]\[Leopard-Raws] Garo - Honoo no Kokuin\[Leopard-Raws] Garo - Honoo no Kokuin - 01 RAW (TX 1280x720 x264 AAC).mp4
Формат : MPEG-4
Профиль формата : Base Media
Идентификатор кодека : isom
Размер файла : 422 Мбайт
Продолжительность : 24 м.
Режим общего битрейта : Переменный
Общий поток : 2423 Кбит/сек
Дата кодирования : UTC 2014-10-03 20:31:24
Дата пометки : UTC 2014-10-03 20:31:24

Видео
Идентификатор : 1
Формат : AVC
Формат/Информация : Advanced Video Codec
Профиль формата : High@L4.1
Параметр CABAC формата : Да
Параметр ReFrames формата : 4 кадра
Идентификатор кодека : avc1
Идентификатор кодека/Информация : Advanced Video Coding
Продолжительность : 24 м.
Битрейт : 2227 Кбит/сек
Максимальный битрейт : 13,6 Мбит/сек
Ширина : 1280 пикселей
Высота : 720 пикселей
Соотношение сторон : 16:9
Режим частоты кадров : Постоянный
Частота кадров : 23,976 кадра/сек
Цветовое пространство : YUV
Субдискретизация насыщенности : 4:2:0
Битовая глубина : 8 бит
Тип развёртки : Прогрессивная
Бит/(Пиксели*Кадры) : 0.101
Размер потока : 388 Мбайт (92%)
Заголовок : 264:fps=23.976@GPAC0.5.1-DEV-rev4283
Библиотека кодирования : x264 core 129 r2245+729M 1a52e03
Настройки программы : cabac=1 / ref=4 / deblock=1:1:-1 / analyse=0x3:0x113 / me=umh / subme=9 / psy=1 / fade_compensate=0.00 / psy_rd=1.00:0.00 / mixed_ref=1 / me_range=24 / chroma_me=1 / trellis=2 / 8x8dct=1 / cqm=0 / deadzone=21,11 / fast_pskip=1 / chroma_qp_offset=-2 / threads=8 / lookahead_threads=1 / sliced_threads=0 / nr=0 / decimate=1 / interlaced=0 / bluray_compat=0 / constrained_intra=0 / fgo=0 / bframes=9 / b_pyramid=2 / b_adapt=2 / b_bias=0 / direct=1 / weightb=1 / open_gop=0 / weightp=2 / keyint=240 / keyint_min=24 / scenecut=40 / intra_refresh=0 / rc=crf / mbtree=0 / crf=18.0 / qcomp=0.72 / qpmin=0 / qpmax=69 / qpstep=4 / ip_ratio=1.40 / pb_ratio=1.30 / aq=1:0.85
Дата кодирования : UTC 2014-10-03 20:31:24
Дата пометки : UTC 2014-10-03 20:31:29
Основные цвета : BT.709
Характеристики трансфера : BT.709
Коэффициенты матрицы : BT.709

Аудио
Идентификатор : 2
Формат : AAC
Формат/Информация : Advanced Audio Codec
Профиль формата : LC
Идентификатор кодека : 40
Продолжительность : 24 м.
Вид битрейта : Переменный
Битрейт : 192 Кбит/сек
Максимальный битрейт : 215 Кбит/сек
Каналы : 2 канала
Расположение каналов : Front: L R
Частота : 48,0 КГц
Метод сжатия : С потерями
Размер потока : 33,4 Мбайт (8%)
Язык : Japanese
Дата кодирования : UTC 2014-10-03 17:36:17
Дата пометки : UTC 2014-10-03 20:31:29


Трекер:  [ 08-Окт-2014 16:00 ]

  

Скачать .torrent

Размер .torrent файла 17 KB


Размер: 422 MB
Хэш (hash) релиза: 3c5e229a321f926dcdb266cc1217241849a931f5
Подписка на обновления:

Еще никто не оставлял запись к записи скачать торрент Гаро: Метка пламени Garo: Honoo no Kokuin . Будь первым!

!Обратная связь