Скачать через торрент Психопаспорт бесплатно Аниме Все серии на русском torrent

Если у вас наблюдаются проблемы со скриншотами, переходом по ссылками, скачиванием торрентов - проблемы в блокировщике рекламы AdBlock. #хорошегоДня!


Статистика раздачи
Размер:  349 MB   |    Зарегистрирован:  3 года 2 месяца   |    .torrent скачан:  33 раза   |   
Раздают:  1  
   
Загрузка...
 
Автор Сообщение

Galfimbul

avatar Galfimbul


Психопаспорт [ТВ-2] | Psycho-Pass 2


Год выпуска: 2014
Страна: Япония
Жанр: триллер, фантастика.
Режиссёр: Сиотани Наоёси.
Студия: Tatsunoko (подробнее...)

Перевод:
Русские субтитры: [Stan WarHammer & Nesitach]
Описание: При трагических обстоятельствах узнав об истинной природе Сивиллы, инспектор Аканэ Цунэмори принимает решение подчиниться системе, искренне веря, что в конце концов человечность и правопорядок смогут сосуществовать в гармонии.
После дела Макишимы и исчезновения Когами суматоха в Департаменте утихла, и город вернулся к прежней размеренно управляемой жизни. Инспектор Цунэмори теперь — член нового подразделения полиции, а преследование и задержание преступников для нее отныне привычное дело. Казалось бы, жизнь вернулась в свою колею, но Аканэ пока не подозревает, что скоро она столкнется с настоящим чудовищем, которое сотрясет Систему до самого ее основания... World Art.
Качество: HDTVRip | Формат: MP4 | Тип видео: без хардсаба | Продолжительность: ТВ (11 эп.), 25 мин. | Видео: [Leopard-Raws]
Видео кодек: H.264
Аудио кодек: AAC
Видео: H.264; 1280x720; ~1974Kbps, 23.976fps; (8 bit)
Аудио: JAP, AAC; 48000Hz; ~192Kbps (2ch);
[spoiler="Скриншоты [превью]"] [/spoiler]
01.Episode 01.

Общее
Полное имя : C:\Users\Home PC\Videos\Раздачи\Psycho-Pass 2\Psycho-Pass 2 - 01.mp4
Формат : MPEG-4
Профиль формата : Base Media
Идентификатор кодека : isom
Размер файла : 349 Мбайт
Продолжительность : 22 м.
Режим общего битрейта : Переменный
Общий поток : 2169 Кбит/сек
Дата кодирования : UTC 2014-10-10 02:38:27
Дата пометки : UTC 2014-10-10 02:38:27

Видео
Идентификатор : 1
Формат : AVC
Формат/Информация : Advanced Video Codec
Профиль формата : High@L4.1
Параметр CABAC формата : Да
Параметр ReFrames формата : 4 кадра
Идентификатор кодека : avc1
Идентификатор кодека/Информация : Advanced Video Coding
Продолжительность : 22 м.
Битрейт : 1974 Кбит/сек
Максимальный битрейт : 15,7 Мбит/сек
Ширина : 1280 пикселей
Высота : 720 пикселей
Соотношение сторон : 16:9
Режим частоты кадров : Постоянный
Частота кадров : 23,976 кадра/сек
Цветовое пространство : YUV
Субдискретизация насыщенности : 4:2:0
Битовая глубина : 8 бит
Тип развёртки : Прогрессивная
Бит/(Пиксели*Кадры) : 0.089
Размер потока : 318 Мбайт (91%)
Заголовок : 264:fps=23.976@GPAC0.5.1-DEV-rev4283
Библиотека кодирования : x264 core 129 r2245+729M 1a52e03
Настройки программы : cabac=1 / ref=4 / deblock=1:1:-1 / analyse=0x3:0x113 / me=umh / subme=9 / psy=1 / fade_compensate=0.00 / psy_rd=1.00:0.00 / mixed_ref=1 / me_range=24 / chroma_me=1 / trellis=2 / 8x8dct=1 / cqm=0 / deadzone=21,11 / fast_pskip=1 / chroma_qp_offset=-2 / threads=8 / lookahead_threads=1 / sliced_threads=0 / nr=0 / decimate=1 / interlaced=0 / bluray_compat=0 / constrained_intra=0 / fgo=0 / bframes=9 / b_pyramid=2 / b_adapt=2 / b_bias=0 / direct=1 / weightb=1 / open_gop=0 / weightp=2 / keyint=240 / keyint_min=24 / scenecut=40 / intra_refresh=0 / rc=crf / mbtree=0 / crf=18.0 / qcomp=0.72 / qpmin=0 / qpmax=69 / qpstep=4 / ip_ratio=1.40 / pb_ratio=1.30 / aq=1:0.85
Дата кодирования : UTC 2014-10-10 02:38:27
Дата пометки : UTC 2014-10-10 02:38:29
Основные цвета : BT.709
Характеристики трансфера : BT.709
Коэффициенты матрицы : BT.709

Аудио
Идентификатор : 2
Формат : AAC
Формат/Информация : Advanced Audio Codec
Профиль формата : LC
Идентификатор кодека : 40
Продолжительность : 22 м.
Вид битрейта : Переменный
Битрейт : 192 Кбит/сек
Максимальный битрейт : 222 Кбит/сек
Каналы : 2 канала
Расположение каналов : Front: L R
Частота : 48,0 КГц
Метод сжатия : С потерями
Размер потока : 30,8 Мбайт (9%)
Язык : Japanese
Дата кодирования : UTC 2014-10-09 18:33:58
Дата пометки : UTC 2014-10-10 02:38:29

Внимание! Это обновляемая раздача. Серии добавляются по мере выхода русских субтитров.


Трекер:  [ 10-Окт-2014 07:30 ]

  

Скачать .torrent

Размер .torrent файла 14 KB


Размер: 349 MB
Хэш (hash) релиза: 2264c3790bac9ec5cdf4e4e348690fd2b0308c13
Подписка на обновления:

Торренты, похожие на Психопаспорт скачать торрент

Форум Название Автор Размер S L Добавлен
Аниме | HD Rips ·· Психопаспорт (ТВ-2) / Psycho-pass 2 (Сиотани Наоёси) [TV] [11 из 11] [без хардсаба] [RUS(ext), JAP+SUB] [2014 г., киберпанк, фантастика, BDRemux] [1080p] Galfimbul 7621807027970.98 GB 0 0 1452184203

19:30

7-Янв-16

Аниме | HD Rips ·· Психопаспорт (фильм) / Gekijouban Psycho-Pass / Psycho-Pass: The Movie (Сиотани Наоёси) [Movie] [без хардсаба] [RUS(ext), JAP+SUB] [2015 г., триллер, фантастика, BDRemux] [1080p] Galfimbul 3274270875230.49 GB 0 0 1452184184

19:29

7-Янв-16

Аниме | HD Rips ·· Психопаспорт (Фильм) / Gekijouban Psycho-Pass [Movie] [Без хардсаба] [RUS(int), JAP+SUB] [2015 г., триллер, фантастика, киберпанк, BDRip] [1080p] Galfimbul 1382853481912.88 GB 0 0 1442208463

08:27

14-Сен-15

Аниме | Rips ·· Психопаспорт (фильм) / Gekijouban Psycho-Pass [Movie] [Без хардсаба] [RUS(int), JAP+SUB] [2015 г., триллер, фантастика, BDRip] [HWP] Galfimbul 11770445731.1 GB 0 0 1442093517

00:31

13-Сен-15

Аниме | HD Rips ·· Психопаспорт / Psycho-Pass [Movie] [Без хардсаба] [JAP, JAP, SUB] [2015 г., триллер, фантастика, BDRip] [720p] Galfimbul 22744285302.12 GB 0 0 1438507018

12:16

2-Авг-15

Аниме | Rips ·· Психопаспорт (ТВ-2) / Psycho-pass 2 [TV] [11 из 11] [Без хардсаба] [RUS(int), JAP+SUB] [2014 г., киберпанк, фантастика, BDRip] [720p] [HD] Galfimbul 49549362024.61 GB 0 0 1431683660

12:54

15-Май-15

Аниме | HD Rips ·· Психопаспорт (ТВ-2) / Psycho-pass 2 (Сиотани Наоёси) [TV] [2 из 11] [без хардсаба] [RUS(ext), JAP+SUB] [2014 г., киберпанк, фантастика, BDRip] [720p] Galfimbul 23260621462.17 GB 0 0 1419093854

19:44

20-Дек-14

Аниме | Rips ·· Психопаспорт [ТВ-2] / Psycho-Pass 2 [TV] [01-06 из 11] [Без хардсаба] [RUS(int), JAP, SUB] [2014 г., триллер, фантастика, HDTVRip] [720p] Galfimbul 28070406832.61 GB 0 0 1416692075

00:34

23-Ноя-14

Аниме | HD Rips ·· Психопаспорт (ТВ-2) / Psycho-Pass 2 (Сиотани Наоёси) [TV] [без хардсаба] [2 из 11] [JAP+SUB] & [1 из 11] [RUS(ext] [2014 г., триллер, фантастика, HDTVRip] [720p] Galfimbul 785282817749 MB 0 0 1413551263

16:07

17-Окт-14

Аниме | HD Rips ·· Психопаспорт 2 / Psycho-Pass 2 [TV] [1 из >11] [без хардсаба] [RUS(int), JAP+SUB] [2014 г., триллер, фантастика, киберпанк, антиутопия, HDTVRip] [720p] Galfimbul 398414161380 MB 0 0 1413209496

17:11

13-Окт-14

Аниме | Rips ·· Психопаспорт (ТВ-2) / Психо-Пасс 2 / Psycho-pass 2 [TV] [01 из >11] [Без хардсаба] [RUS(int), JAP+SUB] [2014 г., триллер, фантастика, HDTVRip] [HWP] Galfimbul 244506523233 MB 0 0 1413113796

14:36

12-Окт-14

Аниме | HD Rips ·· Психопаспорт [ТВ-2] / Psycho-Pass 2 (Сиотани Наоёси) [TV] [1 из 11] [без хардсаба] [RUS(ext),JAP+SUB] [2014 г., триллер, фантастика, HDTVRip] [720p] Galfimbul 398221466380 MB 0 0 1413032749

16:05

11-Окт-14

Аниме | HD Rips ·· Психопаспорт / Psycho-pass (Сиотани Наоёси) [TV] [22 из 22] [без хардсаба] [RUS(ext), JAP+SUB] [2012 г., триллер, фантастика, BDRip] [1080p] Polarnik 4788595004444.6 GB 0 0 1393065775

13:42

22-Фев-14

Аниме | HD Rips ·· Психопаспорт / Psycho-pass (Сиотани Наоёси) [TV] [8 из 22] [без хардсаба] [RUS(ext), JAP+SUB] [2012 г., триллер, фантастика, BDRip] [720p] Galfimbul 78894120017.35 GB 0 0 1364416931

23:42

27-Мар-13

Аниме | HD Rips ·· Психопаспорт / Psycho-pass [TV] [01-22 из 22] [Без хардсаба] [RUS(int), JAP, SUB] [2012 г., приключения, HDTVRip] [720p] L 85285397837.94 GB 0 0 1364386721

15:18

27-Мар-13

Аниме | HD Rips ·· Психопаспорт / Психо-Пасс / Psycho-Pass (Сиотани Наоёси) [TV] [без хардсаба] [22 из 22] [JAP+SUB, RUS(ext)] [2012 г., приключения, HDTVRip] [720p] L 77689090507.24 GB 0 0 1364386685

15:18

27-Мар-13

Аниме | HD Rips ·· Психопаспорт / Psycho-pass [22 из 22] [без хардсаба] [RUS(int), JAP+SUB] [2012 г., приключения, HDTVRip] [720p] L 77167396877.19 GB 0 0 1364386582

15:16

27-Мар-13

Аниме | Rips ·· Психопаспорт / Psycho-pass [TV] [01-22 из 22] [Без хардсаба] [RUS(int), JAP, SUB] [2012 г., приключения, HDTVRip] [HWP] L 62936945615.86 GB 0 0 1364386548

15:15

27-Мар-13

Аниме | Rips ·· Психопаспорт / Психо-Пасс / Psycho-Pass [Сиотани Наоёси][TV][22 из 22] [Jap, Sub] [2012., триллер, фантастика, HDTVRip][Субтитры] L 24713731652.3 GB 0 0 1364386532

15:15

27-Мар-13

Еще никто не оставлял запись к записи скачать торрент Психопаспорт . Будь первым!

!Обратная связь