Скачать через торрент Владыка волшебных стрел и девы войны Madan no Ou to Vanadis бесплатно Аниме Все серии на русском torrent

Если у вас наблюдаются проблемы со скриншотами, переходом по ссылками, скачиванием торрентов - проблемы в блокировщике рекламы AdBlock. #хорошегоДня!


Статистика раздачи
Размер:  333 MB   |    Зарегистрирован:  3 года 2 месяца   |    .torrent скачан:  30 раз   |   
Раздают:  1  
   
Загрузка...
 
Автор Сообщение

Galfimbul

avatar Galfimbul


Владыка волшебных стрел и девы войны / Madan no Ou to Vanadis

Страна: Япония
Год выпуска: 2014 г.
Жанр: приключения, фэнтези, боевик, сёнэн
Тип: TV
Продолжительность: 13 эп, ~25 мин. серия
Озвучка:
- Двухголосая (муж. и жен.)
- Озвучивание: Cuba77 & Nika Lenina [1 из 13] Сэмпл
Режиссер: Сато Тацуо
Студия:

Описание: Однажды бог подарил человеку волшебный лук. Все выпущенные из него стрелы всегда попадали в цель. Благодаря тому человеку и этому луку на континенте воцарил мир и порядок.
Но любой жизни приходит конец. Человек умер, а волшебный лук исчез.
На континенте вновь воцарилась война. Семеро дев войны "Ванадис", которым драконы даровали волшебные оружия правят семи провинциями континента.
И наша история начинается с встречи на поле боя одной из семерых Ванадис и талантливого лучника Тигрврумда Ворна.

Качество: HDTVRip (Leopard-Raws)
Тип релиза: Без хардсаба
Формат видео: MP4
Видео: x264 (8 bit), 1280x720 (16:9), ~1746 kbps, 23.976 fps, 0.079 bit/pixel
Аудио: AAC, 192 kbps, 48.0 KHz, 2 ch Язык Русский (в составе контейнера)
По переводу: FooBoo
GeneralComplete name : D:\Видео\Аниме\Владыка волшебных стрел и девы войны\[AniDub]_Madan_no_Ou_to_Vanadis_[01].mp4Format : MPEG-4Format profile : Base MediaCodec ID : isomFile size : 333 MiBDuration : 24mn 1sOverall bit rate mode : VariableOverall bit rate : 1 940 KbpsEncoded date : UTC 2014-10-06 20:32:56Tagged date : UTC 2014-10-06 20:32:56Writing application : Yamb 2.1.0.0 [http://yamb.unite-video.com]

VideoID : 1Format : AVCFormat/Info : Advanced Video CodecFormat profile : High@L4.1Format settings, CABAC : YesFormat settings, ReFrames : 4 framesCodec ID : avc1Codec ID/Info : Advanced Video CodingDuration : 23mn 59sBit rate : 1 746 KbpsMaximum bit rate : 9 160 KbpsWidth : 1 280 pixelsHeight : 720 pixelsDisplay aspect ratio : 16:9Frame rate mode : ConstantFrame rate : 23.976 fpsColor space : YUVChroma subsampling : 4:2:0Bit depth : 8 bitsScan type : ProgressiveBits/(Pixel*Frame) : 0.079Stream size : 300 MiB (90%)Title : 264Writing library : x264 core 129 r2245+729M 1a52e03Encoding settings : cabac=1 / ref=4 / deblock=1:1:-1 / analyse=0x3:0x113 / me=umh / subme=9 / psy=1 / fade_compensate=0.00 / psy_rd=1.00:0.00 / mixed_ref=1 / me_range=24 / chroma_me=1 / trellis=2 / 8x8dct=1 / cqm=0 / deadzone=21,11 / fast_pskip=1 / chroma_qp_offset=-2 / threads=8 / lookahead_threads=1 / sliced_threads=0 / nr=0 / decimate=1 / interlaced=0 / bluray_compat=0 / constrained_intra=0 / fgo=0 / bframes=9 / b_pyramid=2 / b_adapt=2 / b_bias=0 / direct=1 / weightb=1 / open_gop=0 / weightp=2 / keyint=240 / keyint_min=24 / scenecut=40 / intra_refresh=0 / rc=crf / mbtree=0 / crf=18.5 / qcomp=0.72 / qpmin=0 / qpmax=69 / qpstep=4 / ip_ratio=1.40 / pb_ratio=1.30 / aq=1:0.85Encoded date : UTC 2014-10-05 14:07:07Tagged date : UTC 2014-10-06 20:33:00Color primaries : BT.709-5, BT.1361, IEC 61966-2-4, SMPTE RP177Transfer characteristics : BT.709-5, BT.1361Matrix coefficients : BT.709-5, BT.1361, IEC 61966-2-4 709, SMPTE RP177

AudioID : 2Format : AACFormat/Info : Advanced Audio CodecFormat profile : LCCodec ID : 40Duration : 24mn 1sBit rate mode : VariableBit rate : 192 KbpsMaximum bit rate : 196 KbpsChannel(s) : 2 channelsChannel positions : Front: L RSampling rate : 48.0 KHzCompression mode : LossyStream size : 32.9 MiB (10%)Language : RussianEncoded date : UTC 2014-10-06 20:32:59Tagged date : UTC 2014-10-06 20:33:00
1. Принцесса ветров на поле боя


Трекер:  [ 10-Окт-2014 16:00 ]

  

Скачать .torrent

Размер .torrent файла 13 KB


Размер: 333 MB
Хэш (hash) релиза: ff2f29c0d6f4715127779948adb6cd407508289e
Подписка на обновления:

Еще никто не оставлял запись к записи скачать торрент Владыка волшебных стрел и девы войны Madan no Ou to Vanadis . Будь первым!

!Обратная связь