Скачать через торрент Крест Андж: Рондо ангела и дракона Cross Ange: Rondo of Angels and Dragons бесплатно Аниме Все серии на русском torrent

Если у вас наблюдаются проблемы со скриншотами, переходом по ссылками, скачиванием торрентов - проблемы в блокировщике рекламы AdBlock. #хорошегоДня!


Статистика раздачи
Размер:  1.18 GB   |    Зарегистрирован:  3 года 1 месяц   |    .torrent скачан:  19 раз   |   
Раздают:  1  
   
Загрузка...
 
Автор Сообщение

Galfimbul

avatar Galfimbul


Крест Андж: Рондо ангела и дракона / Cross Ange: Rondo of Angels and Dragons
Страна: Япония
Год выпуска: 2014 г.
Жанр: Приключения, меха
Тип: TV
Продолжительность: 25 эп. по 25 мин
Перевод на русский: Zero

Режиссер: Асино Ёсихару

Студия:

Описание: Благодаря огромному прогрессу в технологии под названием «Мана», человеческий род смог подавить все войны, предотвратить голод, загрязнения и другие земные проблемы полагаясь на её силу, подобную магии. Земля стала мирной утопией без каких-либо нужд.
Первая принцесса империи Мисуруги, Ангелайз, как и все, живёт, не зная забот. Жители империи души в ней не чаяли, и она уже готовилась к коронации. Однако ей раскрывается шокирующая правда о том, что она «Норма». «Норма» — необычный человек, неспособный использовать ману, к которому относятся как к предмету и еретику. Будучи лишённой всего, она уединилась на удалённом острове.
На острове же её ждала судьбоносная встреча с группой девушек «Норма», живущих одними лишь сражениями. Дни напролёт они разъезжают в гуманоидных роботах «Барамэиру», охотясь на драконов, вторгающихся из иного мира. Что ждёт солдата Анге, лишённой своего статуса, в конце её сражения? Во что ей верить? Чего она добьётся? История о храбрости одинокой девушки начнётся этой осенью.

Равка: Leopard-Raws
Качество: HDTVRip
Хардсаб: Отсутствует
Формат видео: mkv
Видео: AVC, 8 bits, 1280x720, 3766 kbps, 23.976 fps, (16:9)
Аудио:
1. JP - AAC, 192 kbps, 48.0 KHz, 2 ch
01. Низложение
02. Непокорная
Общее
Полное имя : D:\[Leopard-Raws]\[Leopard-Raws] Cross Ange - Tenshi to Ryuu no Rondo\[Leopard-Raws] Cross Ange - Tenshi to Ryuu no Rondo - 01 RAW (MX 1280x720 x264 AAC).mp4
Формат : MPEG-4
Профиль формата : Base Media
Идентификатор кодека : isom
Размер файла : 680 Мбайт
Продолжительность : 23 м.
Режим общего битрейта : Переменный
Общий поток : 3962 Кбит/сек
Дата кодирования : UTC 2014-10-05 02:08:23
Дата пометки : UTC 2014-10-05 02:08:23

Видео
Идентификатор : 1
Формат : AVC
Формат/Информация : Advanced Video Codec
Профиль формата : High@L4.1
Параметр CABAC формата : Да
Параметр ReFrames формата : 4 кадра
Идентификатор кодека : avc1
Идентификатор кодека/Информация : Advanced Video Coding
Продолжительность : 23 м.
Битрейт : 3766 Кбит/сек
Максимальный битрейт : 16,7 Мбит/сек
Ширина : 1280 пикселей
Высота : 720 пикселей
Соотношение сторон : 16:9
Режим частоты кадров : Постоянный
Частота кадров : 23,976 кадра/сек
Цветовое пространство : YUV
Субдискретизация насыщенности : 4:2:0
Битовая глубина : 8 бит
Тип развёртки : Прогрессивная
Бит/(Пиксели*Кадры) : 0.170
Размер потока : 646 Мбайт (95%)
Заголовок : 264:fps=23.976@GPAC0.5.1-DEV-rev4283
Библиотека кодирования : x264 core 129 r2245+729M 1a52e03
Настройки программы : cabac=1 / ref=4 / deblock=1:1:-1 / analyse=0x3:0x113 / me=umh / subme=9 / psy=1 / fade_compensate=0.00 / psy_rd=1.00:0.00 / mixed_ref=1 / me_range=24 / chroma_me=1 / trellis=2 / 8x8dct=1 / cqm=0 / deadzone=21,11 / fast_pskip=1 / chroma_qp_offset=-2 / threads=8 / lookahead_threads=1 / sliced_threads=0 / nr=0 / decimate=1 / interlaced=0 / bluray_compat=0 / constrained_intra=0 / fgo=0 / bframes=9 / b_pyramid=2 / b_adapt=2 / b_bias=0 / direct=1 / weightb=1 / open_gop=0 / weightp=2 / keyint=240 / keyint_min=24 / scenecut=40 / intra_refresh=0 / rc=crf / mbtree=0 / crf=18.0 / qcomp=0.72 / qpmin=0 / qpmax=69 / qpstep=4 / ip_ratio=1.40 / pb_ratio=1.30 / aq=1:0.85
Дата кодирования : UTC 2014-10-05 02:08:23
Дата пометки : UTC 2014-10-05 02:08:26
Основные цвета : BT.709
Характеристики трансфера : BT.709
Коэффициенты матрицы : BT.709

Аудио
Идентификатор : 2
Формат : AAC
Формат/Информация : Advanced Audio Codec
Профиль формата : LC
Идентификатор кодека : 40
Продолжительность : 23 м.
Вид битрейта : Переменный
Битрейт : 192 Кбит/сек
Максимальный битрейт : 220 Кбит/сек
Каналы : 2 канала
Расположение каналов : Front: L R
Частота : 48,0 КГц
Метод сжатия : С потерями
Размер потока : 33,0 Мбайт (5%)
Язык : Japanese
Дата кодирования : UTC 2014-10-04 18:03:33
Дата пометки : UTC 2014-10-05 02:08:26


Добавлена 2я серия

Трекер:  [ 18-Окт-2014 06:00 ]

  

Скачать .torrent

Размер .torrent файла 13 KB


Размер: 1.18 GB
Хэш (hash) релиза: 7d15fd095cc6d2a6ff6ed26c3258dcf05e66eff5
Подписка на обновления:

Торренты, похожие на Крест Андж: Рондо ангела и дракона Cross Ange: Rondo of Angels and Dragons скачать торрент

Форум Название Автор Размер S L Добавлен
Аниме | HD Rips ·· Крест Андж: Рондо ангела и дракона / Cross Ange: Rondo of Angels and Dragons (Асино Ёсихару) [TV] [1 из 25] [Без хардсаба] [JAP+SUB] [2014 г., приключения, HDTVRip] [720p] Galfimbul 713116706680 MB 0 0 1412838397

10:06

9-Окт-14

Еще никто не оставлял запись к записи скачать торрент Крест Андж: Рондо ангела и дракона Cross Ange: Rondo of Angels and Dragons . Будь первым!

!Обратная связь