Скачать через торрент Трусливый Велосипедист: Гранде Роуд Yowamushi Pedal: Grande Road бесплатно Аниме Все серии на русском torrent

Если у вас наблюдаются проблемы со скриншотами, переходом по ссылками, скачиванием торрентов - проблемы в блокировщике рекламы AdBlock. #хорошегоДня!


Статистика раздачи
Размер:  1.42 GB   |    Зарегистрирован:  3 года 1 месяц   |    .torrent скачан:  32 раза   |   
Раздают:  1  
   
Загрузка...
 
Автор Сообщение

Galfimbul

avatar Galfimbul


Трусливый Велосипедист: Гранде Роуд / Yowamushi Pedal: Grande Road

Страна: Япония
Год выпуска: 2014 г.
Жанр: спорт
Тип: TV
Продолжительность: 12 эп., 25 мин.
Режиссер: Набэсима Осаму
Снято по манге: Yowamushi Pedal
Автор оригинала: Ватанабэ Ватару
Выпуск: c 07.10.2014
Трансляция в 01:35 [ночной сеанс] на TV Tokyo
Студия:

Описание: Второй сезон аниме про велосипедистов начнется ровно с того места, на котором закончился первый. Перед нами всё те же герои, борющиеся за победу в Национальном Турнире, который проходит в три этапа и длится три дня. На победу претендуют три основных команды: Академия Хаконэ, которая является предыдущим победителем, школа Киото Фушими, новички этого года, активно рвущиеся в бой и преподносящие сюрпризы, и, наконец, Средняя Сохоку, внезапно выбывшая из борьбы в прошлом году, и мечтающая наверстать упущенное в этом, приложив для этого все силы.

Аниме покажет нам картину происходящего в третий, последний и самый тяжелый день турнира. Вам кажется всё предопределено и ничего интересного уже не будет? Ошибаетесь! Это гонка и здесь возможно всё!

Интрига закладывается не хилая: турнир жесток, все ли команды окажутся способны не просто продержаться, но и сохранить лидерство? Сможет ли новичок-первогодка Онода и его товарищи сражаться на равных с сильнейшими и в третий день турнира или это окажется им не по силам? Это нам пока неизвестно, но вот в том, что они будут биться за победу до последнего, сомнений нет.

© shikimori, World Art

Качество: HDTVRip
Тип релиза: Без хардсаба
Формат видео: MP4
Наличие линковки: Нет
Энкод: Zero-Raws
Видео: AVC, 8 bit, 1280x720, ~3994 kbps, 23.976 fps
Аудио: JP, AAC, 2ch, ~189 kbps, 48 kHz (в составе контейнера) [Original]
Субтитры: внешним файлом, русские (01-02)
Перевод: ningen
Общее
Полное имя : D:\Yowamushi Pedal Grande Road [720p]\Yowamushi Pedal Grande Road 01 [720p].mp4
Формат : MPEG-4
Профиль формата : Base Media
Идентификатор кодека : isom
Размер файла : 723 Мбайт
Продолжительность : 24 м.
Режим общего битрейта : Переменный
Общий поток : 4187 Кбит/сек
Дата кодирования : UTC 2014-10-15 11:31:29
Дата пометки : UTC 2014-10-15 11:31:29

Видео
Идентификатор : 1
Формат : AVC
Формат/Информация : Advanced Video Codec
Профиль формата : High@L3.1
Параметр CABAC формата : Да
Параметр ReFrames формата : 4 кадра
Идентификатор кодека : avc1
Идентификатор кодека/Информация : Advanced Video Coding
Продолжительность : 24 м.
Битрейт : 3994 Кбит/сек
Максимальный битрейт : 14,6 Мбит/сек
Ширина : 1280 пикселей
Высота : 720 пикселей
Соотношение сторон : 16:9
Режим частоты кадров : Постоянный
Частота кадров : 23,976 кадра/сек
Цветовое пространство : YUV
Субдискретизация насыщенности : 4:2:0
Битовая глубина : 8 бит
Тип развёртки : Прогрессивная
Бит/(Пиксели*Кадры) : 0.181
Размер потока : 690 Мбайт (95%)
Библиотека кодирования : x264 core 133 r2334 a3ac64b
Настройки программы : cabac=1 / ref=3 / deblock=1:0:0 / analyse=0x3:0x113 / me=hex / subme=7 / psy=1 / psy_rd=1.00:0.00 / mixed_ref=1 / me_range=16 / chroma_me=1 / trellis=1 / 8x8dct=1 / cqm=0 / deadzone=21,11 / fast_pskip=1 / chroma_qp_offset=-2 / threads=12 / lookahead_threads=2 / sliced_threads=0 / nr=0 / decimate=1 / interlaced=0 / bluray_compat=0 / constrained_intra=0 / bframes=3 / b_pyramid=2 / b_adapt=1 / b_bias=0 / direct=1 / weightb=1 / open_gop=0 / weightp=2 / keyint=250 / keyint_min=23 / scenecut=40 / intra_refresh=0 / rc_lookahead=40 / rc=crf / mbtree=1 / crf=19.5 / qcomp=0.60 / qpmin=0 / qpmax=69 / qpstep=4 / ip_ratio=1.40 / aq=1:1.00
Дата кодирования : UTC 2014-10-15 11:06:06
Дата пометки : UTC 2014-10-15 11:31:30

Аудио
Идентификатор : 2
Формат : AAC
Формат/Информация : Advanced Audio Codec
Профиль формата : LC
Идентификатор кодека : 40
Продолжительность : 24 м.
Вид битрейта : Переменный
Битрейт : 192 Кбит/сек
Максимальный битрейт : 193 Кбит/сек
Каналы : 2 канала
Расположение каналов : Front: L R
Частота : 48,0 КГц
Метод сжатия : С потерями
Размер потока : 32,6 Мбайт (5%)
Заголовок : aac#trackID=1:lang=Japanese@GPAC0.5.1-DEV-rev4708
Язык : Japanese
Дата кодирования : UTC 2014-10-15 11:31:29
Дата пометки : UTC 2014-10-15 11:31:30
File: D:\Yowamushi Pedal Grande Road 01 [720p].mp4
Duration: 00:24:08 (1448.36)
Track #1: video
lang: Unknown (1)
codc: avc1 -> H264/AVC (22)
reso: 1280x720 -> 16:9
fram: 23.976 fps
rate: 3994 kbps (3994.37)
dura: 00:24:08 (1448.36)
size: 0.00 B (0)
Track #2: audio (aac#trackID=1:lang=Japanese@GPAC0.5.1-DEV-rev4708)
lang: ja -> Japanese (2)
codc: A_AAC/MPEG4/LC -> AAC (9)
chan: 2 -> Stereo
samp: 48000 Hz
rate: 189 kbps (188.62)
dura: 00:24:08 (1448.36)
size: 0.00 B (0)
Sizes: (check sanity)
disk: 722.84 MB (757947567)
trac: 0.00 B (0) [based on track size]
bitr: 722.23 MB (757310966) [based on bitrate]
tdif: 722.84 MB (757947567) 100.00%
bdif: 621.68 KB (636600) 0.08%
01. Phase 49
02. The Aces
Там [1080p]

Тут [720p]


Трекер:  [ 25-Окт-2014 22:00 ]

  

Скачать .torrent

Размер .torrent файла 15 KB


Размер: 1.42 GB
Хэш (hash) релиза: 2acab4d9aaa1d6e888c61b381f57674af267a070
Подписка на обновления:

Еще никто не оставлял запись к записи скачать торрент Трусливый Велосипедист: Гранде Роуд Yowamushi Pedal: Grande Road . Будь первым!

!Обратная связь