Скачать через торрент Бездарь в старшей школе магии Mahouka Koukou no Rettousei бесплатно Аниме Все серии на русском torrent

Если у вас наблюдаются проблемы со скриншотами, переходом по ссылками, скачиванием торрентов - проблемы в блокировщике рекламы AdBlock. #хорошегоДня!


Статистика раздачи
Размер:  7.87 GB   |    Зарегистрирован:  3 года 1 месяц   |    .torrent скачан:  34 раза   |   
Раздают:  1  
   
Загрузка...
 
Автор Сообщение

Galfimbul

avatar Galfimbul



Год выпуска: 2014
Страна: Япония
Жанр: мистика, романтика, школа
Продолжительность: ТВ, 26 эп. по 25 мин. + 6 спешлов.
Выпуск: c 06.04.2014 по 28.09.2014
Перевод:
<ol class="post-ul">
русские субтитры от Zool & Crisalide (полные/вспомогательные)
</ol>
Режиссер: Оно Манабу
Студия: Madhouse Studios
Описание:
Еще в XX веке наука объяснила сущность магии, но не смогла решить две проблемы – дефицит ресурсов и перенаселение Земли. Увы, в XXI веке это сделала Третья мировая, после которой человечество уменьшилось вдвое, а власть окончательно перешла к магическим кланам, корпорациям и прочим хунтам. Теперь мощь страны определяется не ракетами, а волшебниками, поэтому в Японии юные таланты собирают в Первую старшую школу при столичном магическом университете. Миюки Сиба легко прошла в элитную группу, которую здесь зовут «цветами», а вот ее старший брат по ряду причин попал в разряд «сорняков», почти лишенных дара. Строго наказав сестренке молчать, Тацуя Сиба приготовился учиться, терпеть и не отсвечивать. Да, да, вы правы – не получилось!

До этого «цветочки» относились к «сорнякам» снисходительно (третий сорт – не брак!) или откровенно презирали «недомагов». Харизма Тацуи, его академические успехи и мастерство в бою пошатнули привычный порядок, неформальный лидер «бездарей» быстро нажил врагов и завистников. Необычным парнем заинтересовалась президент школьного Совета Маюми Саэгуса, девушка из могущественного клана. Она пригласила в Совет сразу Тацую и Миюки, после чего у местных интриганов, бандитов и заговорщиков настало бурное обострение. Сможет ли наш герой выстоять, защитить сестру и друзей? Мы в него верим, особенно, если будет помнить, что главное оружие мага – не убойная сила, а спокойствие и светлая голова!
© Hollow, World Art

Название сериала дословно значит «Бездарь в старшей школе магии». Фамилия главных героев Сиба переводится как «управляющие волнами» или «повелители волн».
Информационные ссылки: AniDB || World Art || MAL
Качество: BDRip
Энкод: Winter - RG Pantheon
Тип видео: без хардсаба, без линковки
Формат: mkv
Видео: x264 (Hi10p), 1280x720, ~3700 Kbps, 23.976 fps
Аудио JAP: Vorbis, 48000Hz, ~256 Kbps, 2ch
Аудио RUS 1-3: AC3, 48000Hz, ~192 Kbps, 2ch (внешними файлами)
<ol class="post-ul">
двухголосая (муж./жен.) от Absurd & Eladiel

двухголосая (муж./жен.) от BalFor & Oriko (AniDub)

многоголосая (муж./жен.) от Gezell Studio [1-8]
</ol>
01. Enrollment Part I
02. Enrollment Part II
03. Enrollment Part III
04. Enrollment Part IV
05. Enrollment Part V
06. Enrollment Part VI
07. Enrollment Part VII
08. Nine Schools Competition I
09. Nine Schools Competition II
[url]...4710185[/url]
[url]...4710867[/url]
[url]...4710233[/url]
[url]...4714555[/url]
[url]...4708902[/url]
[url]...4712555[/url]
- BDRip
Общее
Уникальный идентификатор : 234785105847801824957460761297845711189 (0xB0A1F7721AA827529F7BE6D9792B7155)
Полное имя : Z:\Anime\720p\Mahouka Koukou no Rettousei [BD] [720p]\[Winter] Mahouka Koukou no Rettousei 02 [BDrip 1280x720 x264 Vorbis].mkv
Формат : Matroska
Версия формата : Version 2
Размер файла : 671 Мбайт
Продолжительность : 23 м.
Режим общего битрейта : Переменный
Общий поток : 3956 Кбит/сек
Дата кодирования : UTC 2014-07-27 07:36:22
Программа кодирования : mkvmerge v2.9.8 ('C'est le bon') built on Aug 13 2009 12:49:06
Библиотека кодирования : libebml v0.7.7 + libmatroska v0.8.1

Видео
Идентификатор : 1
Формат : AVC
Формат/Информация : Advanced Video Codec
Профиль формата : High 10@L4.1
Параметр CABAC формата : Да
Параметр ReFrames формата : 9 кадров
Идентификатор кодека : V_MPEG4/ISO/AVC
Продолжительность : 23 м.
Битрейт : 3621 Кбит/сек
Ширина : 1280 пикселей
Высота : 720 пикселей
Соотношение сторон : 16:9
Режим частоты кадров : Постоянный
Частота кадров : 23,976 кадра/сек
Цветовое пространство : YUV
Субдискретизация насыщенности : 4:2:0
Битовая глубина : 10 бит
Тип развёртки : Прогрессивная
Бит/(Пиксели*Кадры) : 0.164
Размер потока : 614 Мбайт (92%)
Библиотека кодирования : x264 core 132 r2309 3b1f1f7
Настройки программы : cabac=1 / ref=9 / deblock=1:-2:-2 / analyse=0x3:0x133 / me=umh / subme=9 / psy=1 / psy_rd=0.90:0.00 / mixed_ref=1 / me_range=24 / chroma_me=1 / trellis=2 / 8x8dct=1 / cqm=0 / deadzone=21,11 / fast_pskip=1 / chroma_qp_offset=-2 / threads=12 / lookahead_threads=2 / sliced_threads=0 / nr=0 / decimate=0 / interlaced=0 / bluray_compat=0 / constrained_intra=0 / bframes=8 / b_pyramid=2 / b_adapt=2 / b_bias=0 / direct=1 / weightb=1 / open_gop=0 / weightp=2 / keyint=250 / keyint_min=23 / scenecut=40 / intra_refresh=0 / rc=crf / mbtree=0 / crf=15.7 / qcomp=0.70 / qpmin=9 / qpmax=40 / qpstep=4 / ip_ratio=1.40 / pb_ratio=1.30 / aq=1:0.90
Default : Нет
Forced : Нет

Аудио
Идентификатор : 2
Формат : Vorbis
Параметр Floor формата : 1
Идентификатор кодека : A_VORBIS
Продолжительность : 23 м.
Вид битрейта : Переменный
Битрейт : 256 Кбит/сек
Каналы : 2 канала
Частота : 48,0 КГц
Метод сжатия : С потерями
Размер потока : 43,4 Мбайт (6%)
Библиотека кодирования : libVorbis (Schaufenugget) (20101101 (Schaufenugget))
Язык : Japanese
Default : Да
Forced : Нет


<ol class="post-ul">
Выбор видео, перевода, озвучки, а также типа сборки материала осуществляется релизером и не подлежит обсуждению. Если вы считаете, что раздаваемый материал противоречит правилам раздела "Аниме" rutracker.org, сообщите об этом одному из модераторов раздела.

В случае появления нового материала или же лучшего по качеству материала релизер оставляет за собой право обновить раздачу. В этом случае вам необходимо ознакомиться с изменениями (добавлениями) и перекачать торрент.

Данный релиз предназначен для просмотра на ПК. Воспроизведение на иных проигрывателях не гарантируется. Для просмотра рекомендуется Media Player Classic с установленным пакетом кодеков K-Lite.

Данный релиз содержит 10-битное видео (Hi10p). Для корректного воспроизведения обязательно используйте кодеки, поддерживающие 10-битное видео.
Обсудить проблемы с воспроизведением и получить дополнительную информацию можно [url=...3682344][b]здесь[/url].

Данный релиз предназначен для просмотра с внешними субтитрами и внешними звуковыми дорожками.
<ol class="post-ul">
Для просмотра с внешней звуковой дорожкой нужно:
перекинуть файлы .mka из папки "RUS Sound [<автор(ы) озвучки>]" в одну папку с видео и переключить звуковую дорожку в плеере при просмотре. Как это сделать в разных плеерах подробно описано [url=...2403326]здесь[/url].
Для просмотра с субтитрами нужно:
перекинуть файлы .ass из папки "RUS Subtitles [<автор(ы) перевода>]" в одну папку с видео - плеер подгрузит их автоматически при открытии видео.
</ol>

Если у вас возникли проблемы с просмотром, не связанные с описанным выше, сообщите о них автору раздачи посредством сообщения в теме или ЛС Aglenn.
</ol>


Трекер:  [ 26-Окт-2014 18:30 ]

  

Скачать .torrent

Размер .torrent файла 47 KB


Размер: 7.87 GB
Хэш (hash) релиза: ba80f1b48621a9b9e9f633198f2f5adcd2e85d93
Подписка на обновления:

Торренты, похожие на Бездарь в старшей школе магии Mahouka Koukou no Rettousei скачать торрент

Форум Название Автор Размер S L Добавлен
Аниме | HD Rips ·· Бездарь в старшей школе магии / Mahouka Koukou no Rettousei / The Irregular at Magic High School (Оно Манабу) [TV+Special] [без хардсаба] [2+1 из 26+5] [JAP+SUB] & [2+0 из 26+5] [RUS(ext)] [2014 г., мистика, романтика, школа, BDRip] [1080p] Galfimbul 53597292124.99 GB 0 0 1409857250

22:00

4-Сен-14

Еще никто не оставлял запись к записи скачать торрент Бездарь в старшей школе магии Mahouka Koukou no Rettousei . Будь первым!

!Обратная связь