Скачать через торрент Mы ждём тебя летом Ano Natsu de Matteru бесплатно Аниме Все серии на русском torrent

Если у вас наблюдаются проблемы со скриншотами, переходом по ссылками, скачиванием торрентов - проблемы в блокировщике рекламы AdBlock. #хорошегоДня!


Статистика раздачи
Размер:  275 MB   |    Зарегистрирован:  3 года 1 месяц   |    .torrent скачан:  25 раз   |   
Раздают:  1  
   
Загрузка...
 
Автор Сообщение

Galfimbul

avatar Galfimbul


Мы ждём тебя летом / Ano Natsu de Matteru

Страна: Япония
Год выпуска: 2014 г.
Жанр: повседневность, романтика
Тип: OVA
Продолжительность: 25 мин.
Режиссер: Нагай Тацуюки
Студия: J.C.STAFF

Описание: Пронзительно-голубое небо. Белые облака неспешно плывут по нему и скрываются за линией зеленых гор, окружающих город. День за днем. Это забытое Богом место, где мало что случается, точнее, ничего не случается вообще. Но так было только до того момента, как одному местному жителю, по имени Кайто Кирисима, не стукнуло, как яблоко Ньютону, снять фильм. В это время в городе появляется Итика Такацуки, которая переворачивает его жизнь с ног на голову. Долгожданное лето скоро начнется.

Качество: BDRip
Тип релиза: Без хардсаба
Формат видео: MP4
Наличие линковки: Нет
Релиз/Автор рипа: Anonymous
Видео: H264, 1280x720, 8bits, 1272kbps, 23.976fps
Аудио: AAC, 2ch, 165kbps, 48kHz Язык Японский
Субтитры: ass, отдельным файлом Язык субтитров русский ; Перевод: Ryuji ; Редактор: Mika ; Оформление: Hariton Harko
Format : MPEG-4Format profile : Base MediaCodec ID : isomFile size : 275 MiBDuration : 26mn 38sOverall bit rate mode : VariableOverall bit rate : 1 442 KbpsWriting application : ShanaEncoder 2.1

VideoID : 1Format : AVCFormat/Info : Advanced Video CodecFormat profile : High@L4.1Format settings, CABAC : YesFormat settings, ReFrames : 4 framesCodec ID : avc1Codec ID/Info : Advanced Video CodingDuration : 26mn 38sBit rate : 1 272 KbpsWidth : 1 280 pixelsHeight : 720 pixelsDisplay aspect ratio : 16:9Frame rate mode : VariableFrame rate : 23.976 fpsMinimum frame rate : 3.996 fpsMaximum frame rate : 23.976 fpsColor space : YUVChroma subsampling : 4:2:0Bit depth : 8 bitsScan type : ProgressiveBits/(Pixel*Frame) : 0.058Stream size : 242 MiB (88%)Writing library : x264 core 140Encoding settings : cabac=1 / ref=1 / deblock=1:0:0 / analyse=0x3:0x3 / me=dia / subme=1 / psy=1 / psy_rd=1.00:0.00 / mixed_ref=0 / me_range=16 / chroma_me=1 / trellis=0 / 8x8dct=1 / cqm=0 / deadzone=21,11 / fast_pskip=1 / chroma_qp_offset=0 / threads=3 / lookahead_threads=1 / sliced_threads=0 / nr=0 / decimate=1 / interlaced=0 / bluray_compat=0 / constrained_intra=0 / bframes=3 / b_pyramid=2 / b_adapt=1 / b_bias=0 / direct=1 / weightb=1 / open_gop=0 / weightp=1 / keyint=250 / keyint_min=23 / scenecut=40 / intra_refresh=0 / rc=crf / mbtree=0 / crf=23.0 / qcomp=0.60 / qpmin=0 / qpmax=69 / qpstep=4 / ip_ratio=1.40 / pb_ratio=1.30 / aq=1:1.00

AudioID : 2Format : AACFormat/Info : Advanced Audio CodecFormat profile : LCCodec ID : 40Duration : 26mn 37sBit rate mode : VariableBit rate : 165 KbpsMaximum bit rate : 192 KbpsChannel count : 2 channelsChannel positions : Front: L RSampling rate : 48.0 KHzCompression mode : LossyStream size : 31.5 MiB (11%)
[url]...4836935[/url]
- 720р


Трекер:  [ 04-Ноя-2014 16:00 ]

  

Скачать .torrent

Размер .torrent файла 11 KB


Размер: 275 MB
Хэш (hash) релиза: e4250f7f66ebedfab983bc41abcd4ddb6739dcdf
Подписка на обновления:

Торренты, похожие на Mы ждём тебя летом Ano Natsu de Matteru скачать торрент

Форум Название Автор Размер S L Добавлен
Аниме | HD Rips ·· Mы ждём тебя летом / Ano Natsu de Matteru [OVA] [1 из 1] [Без хардсаба] [JAP, SUB] [2014 г., повседневность, романтика, BDRip] [1080p] Galfimbul 209417531200 MB 0 0 1412317891

09:31

3-Окт-14

Еще никто не оставлял запись к записи скачать торрент Mы ждём тебя летом Ano Natsu de Matteru . Будь первым!

!Обратная связь