Скачать через торрент Кой-Кен: Кружок в поисках настоящей любви. Теперь мы в аниме! Koi-ken! Watashitachi Anime ni Nacchatta! бесплатно Аниме Все серии на русском torrent

Если у вас наблюдаются проблемы со скриншотами, переходом по ссылками, скачиванием торрентов - проблемы в блокировщике рекламы AdBlock. #хорошегоДня!


Статистика раздачи
Размер:  605 MB   |    Зарегистрирован:  3 года   |    .torrent скачан:  48 раз   |   
Раздают:  1  
   
Загрузка...
 
Автор Сообщение

Galfimbul

avatar Galfimbul


Кой-Кен: Кружок в поисках настоящей любви. Теперь мы в аниме! / Koi-ken! Watashitachi Anime ni Nacchatta!

Страна: Япония
Год выпуска: 2012 г.
Жанр: повседневность
Тип: ONA
Продолжительность: 55 мин.
Режиссер: Акао Дэко
Студия: Marvy Jack

Описание: В пылу спора Каэде Вакамия, одна из участниц Кружка по поиску настоящей любви, обронила фразу, что быть идолом чрезвычайно просто. Чем сильно задела Нагису Тояму, уже вполне успешного идола. И по настоянию её менеджера вся девичья часть кружка была приглашена составить ей компанию и самим попробовать стать идолами. Вскоре Каэде осознала, что это не так уж и просто, как казалось...

Качество: BDRip
Тип релиза: Без хардсаба
Формат видео: MР4
Наличие линковки: Нет
Релиз/Автор рипа: Ohys
Видео: H264, 1280x720, 8bits, 1459kbps, 23.976fps
Аудио: AAC, 2ch, 128kbps, 48kHz Язык Японский
Субтитры: ass, отдельным файлом Язык субтитров русский ; Перевод: Deep_Kamate
Format : MPEG-4Format profile : Base MediaCodec ID : isomFile size : 605 MiBDuration : 53mn 13sOverall bit rate mode : VariableOverall bit rate : 1 590 Kbps

VideoID : 1Format : AVCFormat/Info : Advanced Video CodecFormat profile : High@L4.0Format settings, CABAC : YesFormat settings, ReFrames : 9 framesCodec ID : avc1Codec ID/Info : Advanced Video CodingDuration : 53mn 13sBit rate : 1 459 KbpsMaximum bit rate : 7 746 KbpsWidth : 1 280 pixelsHeight : 720 pixelsDisplay aspect ratio : 16:9Frame rate mode : ConstantFrame rate : 23.976 fpsColor space : YUVChroma subsampling : 4:2:0Bit depth : 8 bitsScan type : ProgressiveBits/(Pixel*Frame) : 0.066Stream size : 555 MiB (92%)Writing library : x264 core 125Encoding settings : cabac=1 / ref=9 / deblock=1:0:0 / analyse=0x3:0x113 / me=umh / subme=7 / psy=1 / psy_rd=1.00:0.00 / mixed_ref=1 / me_range=16 / chroma_me=1 / trellis=2 / 8x8dct=1 / cqm=0 / deadzone=21,11 / fast_pskip=1 / chroma_qp_offset=-2 / threads=6 / lookahead_threads=1 / sliced_threads=0 / nr=0 / decimate=1 / interlaced=0 / bluray_compat=0 / constrained_intra=0 / bframes=0 / weightp=2 / keyint=250 / keyint_min=25 / scenecut=40 / intra_refresh=0 / rc_lookahead=40 / rc=crf / mbtree=1 / crf=20.0 / qcomp=0.60 / qpmin=1 / qpmax=51 / qpstep=8 / ip_ratio=1.40 / aq=1:1.00

AudioID : 2Format : AACFormat/Info : Advanced Audio CodecFormat profile : LCCodec ID : 40Duration : 53mn 13sBit rate mode : VariableBit rate : 128 KbpsMaximum bit rate : 191 KbpsChannel count : 2 channelsChannel positions : Front: L RSampling rate : 48.0 KHzCompression mode : LossyStream size : 48.7 MiB (8%)Language : Japanese


Трекер:  [ 18-Ноя-2014 19:00 ]

  

Скачать .torrent

Размер .torrent файла 12 KB


Размер: 605 MB
Хэш (hash) релиза: 1e97801b6c1c265ec62a9e5149ba4c77537d11f1
Подписка на обновления:

Еще никто не оставлял запись к записи скачать торрент Кой-Кен: Кружок в поисках настоящей любви. Теперь мы в аниме! Koi-ken! Watashitachi Anime ni Nacchatta! . Будь первым!

!Обратная связь