Скачать через торрент музыку Однажды в Голливуде What Just Happened ? бесплатно без регистрации torrent

Если у вас наблюдаются проблемы со скриншотами, переходом по ссылками, скачиванием торрентов - проблемы в блокировщике рекламы AdBlock. #хорошегоДня!


Статистика раздачи
Размер:  313 MB   |    Зарегистрирован:  3 года   |    .torrent скачан:  29 раз   |   
Раздают:  1  
   
Загрузка...
 
Автор Сообщение

Galfimbul

avatar Galfimbul


Однажды в Голливуде / What Just Happened ?


Жанр: Score / Soundtrack || Композитор: Marcelo Zarvos || Год выпуска диска: 2008 || Страна-производитель диска: США || Аудио кодек: FLAC (*.flac) || Тип рипа: tracks+.cue || Битрейт аудио: lossless || Продолжительность: 00:54:57 || Источник: What.cd(scorned) || Наличие сканов в содержимом раздачи: нет
Треклист:
01. L.A. Drive [1:30]
02. Hey Cowboy - Lee Hazlewood/Nina Lizell [3:17]
03. Red Carpet [1:32]
04. Poor Boy - Nick Drake [6:09]
05. The Shooting Part 1 [2:29]
06. Mr. Bojangles - Nina Simone [5:01]
07. Ben's Waltz [1:47]
08. Friends and Foes [2:47]
09. Brother Lee - Citizen Cope [3:49]
10. Landfill Chase [3:28]
11. Still in My Head [3:36]
12. Bandits - Buck 65 [3:22]
13. The Shooting Part 2 [3:22]
14. Brothers In Arms - Dire Straits [7:00]
15. Night Drive in Cannes [2:54]
16. Man with the Harmonica - Ennio Morricone [3:53]
Exact Audio Copy V0.99 prebeta 5 from 4. May 2009

EAC extraction logfile from 5. November 2010, 16:25

Various / What Just Happened?

Used drive : PIONEER DVD-RW DVR-115D Adapter: 0 ID: 0

Read mode : SecureUtilize accurate stream : YesDefeat audio cache : YesMake use of C2 pointers : No

Read offset correction : 48Overread into Lead-In and Lead-Out : NoFill up missing offset samples with silence : YesDelete leading and trailing silent blocks : NoNull samples used in CRC calculations : YesUsed interface : Native Win32 interface for Win NT & 2000Gap handling : Appended to previous track

Used output format : User Defined EncoderSelected bitrate : 768 kBit/sQuality : HighAdd ID3 tag : NoCommand line compressor : C:\Program Files (x86)\FLAC\flac.exeAdditional command line options : -V -8 -T "artist=%a" -T "title=%t" -T "album=%g" -T "date=%y" -T "tracknumber=%n" -T "genre=%m" %s

TOC of the extracted CD

Track | Start | Length | Start sector | End sector --------------------------------------------------------- 1 | 0:00.00 | 1:31.22 | 0 | 6846 2 | 1:31.22 | 3:18.59 | 6847 | 21755 3 | 4:50.06 | 1:31.63 | 21756 | 28643 4 | 6:21.69 | 6:08.22 | 28644 | 56265 5 | 12:30.16 | 2:17.43 | 56266 | 66583 6 | 14:47.59 | 5:02.01 | 66584 | 89234 7 | 19:49.60 | 1:46.65 | 89235 | 97249 8 | 21:36.50 | 2:47.59 | 97250 | 109833 9 | 24:24.34 | 3:50.23 | 109834 | 127106 10 | 28:14.57 | 3:11.67 | 127107 | 141498 11 | 31:26.49 | 3:23.61 | 141499 | 156784 12 | 34:50.35 | 3:25.12 | 156785 | 172171 13 | 38:15.47 | 3:07.65 | 172172 | 186261 14 | 41:23.37 | 6:56.54 | 186262 | 217515 15 | 48:20.16 | 2:45.04 | 217516 | 229894 16 | 51:05.20 | 3:51.71 | 229895 | 247290

Track 1

Filename F:\CD Rips\01 Marcelo Zarvos - L.A. Drive.wav

Pre-gap length 0:00:02.00

Peak level 98.7 % Track quality 99.8 % Test CRC 5EC37B25 Copy CRC 5EC37B25 Track not present in AccurateRip database Copy OK

Track 2

Filename F:\CD Rips\02 Lee Hazlewood and Nina Lizell - Hey Cowboy.wav

Pre-gap length 0:00:00.98

Peak level 98.7 % Track quality 100.0 % Test CRC B0115258 Copy CRC B0115258 Track not present in AccurateRip database Copy OK

Track 3

Filename F:\CD Rips\03 Marcelo Zarvos - Red Carpet.wav

Pre-gap length 0:00:01.22

Peak level 98.7 % Track quality 100.0 % Test CRC 9C6A95C2 Copy CRC 9C6A95C2 Track not present in AccurateRip database Copy OK

Track 4

Filename F:\CD Rips\04 Nick Drake - Poor Boy.wav

Pre-gap length 0:00:03.02

Peak level 100.0 % Track quality 100.0 % Test CRC 1E63916E Copy CRC 1E63916E Track not present in AccurateRip database Copy OK

Track 5

Filename F:\CD Rips\05 Marcelo Zarvos - The Shooting Part 1.wav

Pre-gap length 0:00:02.50

Peak level 98.7 % Track quality 100.0 % Test CRC E484D5D8 Copy CRC E484D5D8 Track not present in AccurateRip database Copy OK

Track 6

Filename F:\CD Rips\06 Nina Simone - Mr. Bojangles.wav

Pre-gap length 0:00:02.00

Peak level 99.9 % Track quality 100.0 % Test CRC A429CFF8 Copy CRC A429CFF8 Track not present in AccurateRip database Copy OK

Track 7

Filename F:\CD Rips\07 Marcelo Zarvos - Ben's Waltz.wav

Pre-gap length 0:00:03.48

Peak level 98.7 % Track quality 100.0 % Test CRC 4997E29E Copy CRC 4997E29E Track not present in AccurateRip database Copy OK

Track 8

Filename F:\CD Rips\08 Marcelo Zarvos - Friends and Foes.wav

Pre-gap length 0:00:02.00

Peak level 98.7 % Track quality 100.0 % Test CRC 90BCB98A Copy CRC 90BCB98A Track not present in AccurateRip database Copy OK

Track 9

Filename F:\CD Rips\09 Citizen Cope - Brother Lee.wav

Pre-gap length 0:00:03.00

Peak level 69.8 % Track quality 100.0 % Test CRC 66516713 Copy CRC 66516713 Track not present in AccurateRip database Copy OK

Track 10

Filename F:\CD Rips\10 Marcelo Zarvos - Landfill Chase.wav

Pre-gap length 0:00:02.00

Peak level 98.7 % Track quality 100.0 % Test CRC 7DB68FAF Copy CRC 7DB68FAF Track not present in AccurateRip database Copy OK

Track 11

Filename F:\CD Rips\11 Marcelo Zarvos - Still in My Head.wav

Pre-gap length 0:00:01.00

Peak level 98.7 % Track quality 100.0 % Test CRC D0524A67 Copy CRC D0524A67 Track not present in AccurateRip database Copy OK

Track 12

Filename F:\CD Rips\12 Marcelo Zarvos - Buck 65 , Bandits.wav

Pre-gap length 0:00:02.00

Peak level 98.8 % Track quality 100.0 % Test CRC 7856DCC4 Copy CRC 7856DCC4 Track not present in AccurateRip database Copy OK

Track 13

Filename F:\CD Rips\13 Marcelo Zarvos - The Shooting Part 2.wav

Pre-gap length 0:00:03.00

Peak level 98.7 % Track quality 100.0 % Test CRC C597EA2D Copy CRC C597EA2D Track not present in AccurateRip database Copy OK

Track 14

Filename F:\CD Rips\14 Dire Straits - Brothers In Arms.wav

Pre-gap length 0:00:02.49

Peak level 100.0 % Track quality 99.9 % Test CRC 10E7C7A7 Copy CRC 10E7C7A7 Track not present in AccurateRip database Copy OK

Track 15

Filename F:\CD Rips\15 Marcelo Zarvos - Night Drive in Cannes.wav

Pre-gap length 0:00:01.49

Peak level 98.7 % Track quality 99.9 % Test CRC 7C556148 Copy CRC 7C556148 Track not present in AccurateRip database Copy OK

Track 16

Filename F:\CD Rips\16 City of Prague Philharmonic Orchestra - Once Upon a Time in the West Man with the Harmonica.wav

Pre-gap length 0:00:02.00

Peak level 98.7 % Track quality 100.0 % Test CRC 31AB6ED0 Copy CRC 31AB6ED0 Track not present in AccurateRip database Copy OK

None of the tracks are present in the AccurateRip database

No errors occurred

End of status report
REM GENRE SoundtrackREM DATE 2008REM DISCID 020CE110REM COMMENT "ExactAudioCopy v0.99pb5"FILE "01 Marcelo Zarvos - L.A. Drive.wav" WAVE TRACK 01 AUDIO INDEX 01 00:00:00 TRACK 02 AUDIO INDEX 00 01:30:23FILE "02 Lee Hazlewood and Nina Lizell - Hey Cowboy.wav" WAVE INDEX 01 00:00:00 TRACK 03 AUDIO INDEX 00 03:17:42FILE "03 Marcelo Zarvos - Red Carpet.wav" WAVE INDEX 01 00:00:00 TRACK 04 AUDIO INDEX 00 01:28:61FILE "04 Nick Drake - Poor Boy.wav" WAVE INDEX 01 00:00:00 TRACK 05 AUDIO INDEX 00 06:05:59FILE "05 Marcelo Zarvos - The Shooting Part 1.wav" WAVE INDEX 01 00:00:00 TRACK 06 AUDIO INDEX 00 02:15:43FILE "06 Nina Simone - Mr. Bojangles.wav" WAVE INDEX 01 00:00:00 TRACK 07 AUDIO INDEX 00 04:58:40FILE "07 Marcelo Zarvos - Ben's Waltz.wav" WAVE INDEX 01 00:00:00 TRACK 08 AUDIO INDEX 00 01:44:65FILE "08 Marcelo Zarvos - Friends and Foes.wav" WAVE INDEX 01 00:00:00 TRACK 09 AUDIO INDEX 00 02:44:59FILE "09 Citizen Cope - Brother Lee.wav" WAVE INDEX 01 00:00:00 TRACK 10 AUDIO INDEX 00 03:48:23FILE "10 Marcelo Zarvos - Landfill Chase.wav" WAVE INDEX 01 00:00:00 TRACK 11 AUDIO INDEX 00 03:10:67FILE "11 Marcelo Zarvos - Still in My Head.wav" WAVE INDEX 01 00:00:00 TRACK 12 AUDIO INDEX 00 03:21:61FILE "12 Marcelo Zarvos - Buck 65 , Bandits.wav" WAVE INDEX 01 00:00:00 TRACK 13 AUDIO INDEX 00 03:22:12FILE "13 Marcelo Zarvos - The Shooting Part 2.wav" WAVE INDEX 01 00:00:00 TRACK 14 AUDIO INDEX 00 03:05:28FILE "14 Dire Straits - Brothers In Arms.wav" WAVE INDEX 01 00:00:00 TRACK 15 AUDIO INDEX 00 06:55:17FILE "15 Marcelo Zarvos - Night Drive in Cannes.wav" WAVE INDEX 01 00:00:00 TRACK 16 AUDIO INDEX 00 02:43:04FILE "16 City of Prague Philharmonic Orchestra - Once Upon a Time in the West Man with the Harmonica.wav" WAVE INDEX 01 00:00:00

MP3: [url=...1508818](OST) Однажды в Голливуде\ What Just Happened ? - 2008, MP3 , 320 kbps[/url]


Трекер:  [ 27-Ноя-2014 11:00 ]

  

Скачать .torrent

Размер .torrent файла 14 KB


Размер: 313 MB
Хэш (hash) релиза: 4c193dd335e2e742ba9e662846930dd6ce4fd2d9

Еще никто не оставлял запись к записи скачать торрент Однажды в Голливуде What Just Happened ? . Будь первым!

!Обратная связь