Скачать через торрент музыку Порок на экспорт Eastern Promises бесплатно без регистрации torrent

Если у вас наблюдаются проблемы со скриншотами, переходом по ссылками, скачиванием торрентов - проблемы в блокировщике рекламы AdBlock. #хорошегоДня!


Статистика раздачи
Размер:  167 MB   |    Зарегистрирован:  3 года   |    .torrent скачан:  27 раз   |   
Раздают:  1  
   
Загрузка...
 
Автор Сообщение

Galfimbul

avatar Galfimbul


Порок на экспорт / Eastern Promises
Жанр: Score
Композитор: Howard Shore
Год выпуска диска: 2007
Страна-производитель диска: USA

Издатель (лейбл): Sony Classical
Номер по каталогу: 88697-16687-2
Аудиокодек: FLAC (*.flac)
Тип рипа: tracks+.cue

Битрейт аудио: lossless
Продолжительность: 00:36:55
Источник: CD / What.CD
Наличие сканов в содержимом раздачи: нет
Треклист:
01 - Eastern Promises
02 - Tatiana
03 - London Streets
04 - Sometimes Birth and Death Go Together
05 - Trafalgar Hospital
06 - Vory v Zakone
07 - Slavery and Suffering
08 - Nikolai
09 - Kirillc
10 - Anna Khitrova
11 - Eagle and Star
12 - Nine Elms
13 - Like a Place in the Bible
14 - Trans-Siberian Diary
Exact Audio Copy V0.99 prebeta 4 from 23. January 2008

EAC extraction logfile from 26. April 2009, 9:02

Howard Shore / Eastern Promises

Used drive : PHILIPS DROM6216 Adapter: 3 ID: 1

Read mode : SecureUtilize accurate stream : YesDefeat audio cache : YesMake use of C2 pointers : No

Read offset correction : 738Overread into Lead-In and Lead-Out : NoFill up missing offset samples with silence : YesDelete leading and trailing silent blocks : NoNull samples used in CRC calculations : YesUsed interface : Installed external ASPI interfaceGap handling : Appended to previous track

Used output format : Internal WAV RoutinesSample format : 44.100 Hz; 16 Bit; Stereo

TOC of the extracted CD

Track | Start | Length | Start sector | End sector --------------------------------------------------------- 1 | 0:00.00 | 5:04.15 | 0 | 22814 2 | 5:04.15 | 5:11.51 | 22815 | 46190 3 | 10:15.66 | 1:56.06 | 46191 | 54896 4 | 12:11.72 | 1:53.24 | 54897 | 63395 5 | 14:05.21 | 1:33.36 | 63396 | 70406 6 | 15:38.57 | 0:48.25 | 70407 | 74031 7 | 16:27.07 | 2:00.09 | 74032 | 83040 8 | 18:27.16 | 1:19.30 | 83041 | 88995 9 | 19:46.46 | 2:09.19 | 88996 | 98689 10 | 21:55.65 | 3:25.37 | 98690 | 114101 11 | 25:21.27 | 1:25.24 | 114102 | 120500 12 | 26:46.51 | 6:15.45 | 120501 | 148670 13 | 33:02.21 | 1:22.06 | 148671 | 154826 14 | 34:24.27 | 2:30.51 | 154827 | 166127

Track 1

Filename G:\Temp Mp3s\01 - Eastern Promises.wav

Pre-gap length 0:00:02.00

Peak level 90.2 % Track quality 100.0 % Test CRC 0D316559 Copy CRC 0D316559 Accurately ripped (confidence 3) [48A3C4D2] Copy OK

Track 2

Filename G:\Temp Mp3s\02 - Tatiana.wav

Peak level 88.9 % Track quality 100.0 % Test CRC E9B0ED06 Copy CRC E9B0ED06 Accurately ripped (confidence 3) [2F2205CA] Copy OK

Track 3

Filename G:\Temp Mp3s\03 - London Streets.wav

Peak level 48.8 % Track quality 100.0 % Test CRC 0D9A3CB8 Copy CRC 0D9A3CB8 Accurately ripped (confidence 3) [FB525188] Copy OK

Track 4

Filename G:\Temp Mp3s\04 - Sometimes Birth and Death Go Together.wav

Peak level 47.1 % Track quality 100.0 % Test CRC 1FA69148 Copy CRC 1FA69148 Accurately ripped (confidence 3) [BF559AAF] Copy OK

Track 5

Filename G:\Temp Mp3s\05 - Trafalgar Hospital.wav

Peak level 53.4 % Track quality 100.0 % Test CRC 59F0CD18 Copy CRC 59F0CD18 Accurately ripped (confidence 3) [649A3553] Copy OK

Track 6

Filename G:\Temp Mp3s\06 - Vory v Zakone.wav

Peak level 37.3 % Track quality 100.0 % Test CRC 87B755CF Copy CRC 87B755CF Accurately ripped (confidence 3) [25833214] Copy OK

Track 7

Filename G:\Temp Mp3s\07 - Slavery and Suffering.wav

Peak level 45.3 % Track quality 100.0 % Test CRC 7878C731 Copy CRC 7878C731 Accurately ripped (confidence 3) [921B3E05] Copy OK

Track 8

Filename G:\Temp Mp3s\08 - Nikolai.wav

Peak level 27.6 % Track quality 100.0 % Test CRC 393808E9 Copy CRC 393808E9 Accurately ripped (confidence 3) [039DFFF2] Copy OK

Track 9

Filename G:\Temp Mp3s\09 - Kirill.wav

Peak level 55.2 % Track quality 100.0 % Test CRC 7240CE86 Copy CRC 7240CE86 Accurately ripped (confidence 3) [0934F768] Copy OK

Track 10

Filename G:\Temp Mp3s\10 - Anna Khitrova.wav

Peak level 51.8 % Track quality 100.0 % Test CRC EF6608FE Copy CRC EF6608FE Accurately ripped (confidence 3) [3290797C] Copy OK

Track 11

Filename G:\Temp Mp3s\11 - Eagle and Star.wav

Peak level 36.9 % Track quality 99.8 % Test CRC EBF643C4 Copy CRC EBF643C4 Accurately ripped (confidence 3) [C4A8D549] Copy OK

Track 12

Filename G:\Temp Mp3s\12 - Nine Elms.wav

Peak level 97.5 % Track quality 100.0 % Test CRC A2CFB8DD Copy CRC A2CFB8DD Accurately ripped (confidence 3) [09CE2263] Copy OK

Track 13

Filename G:\Temp Mp3s\13 - Like a Place in the Bible.wav

Peak level 40.8 % Track quality 100.0 % Test CRC B99F169C Copy CRC B99F169C Accurately ripped (confidence 3) [235FEE09] Copy OK

Track 14

Filename G:\Temp Mp3s\14 - Trans-Siberian Diary.wav

Peak level 99.3 % Track quality 100.0 % Test CRC 44858D6E Copy CRC 44858D6E Accurately ripped (confidence 3) [41E0DF2A] Copy OK

All tracks accurately ripped

No errors occurred

End of status report
REM GENRE ScoreREM DATE 2007REM DISCID C708A70EREM COMMENT "ExactAudioCopy v0.99pb4"PERFORMER "Howard Shore"TITLE "Eastern Promises"FILE "01 - Eastern Promises.wav" WAVE TRACK 01 AUDIO TITLE "Eastern Promises" PERFORMER "Howard Shore" ISRC % INDEX 01 00:00:00FILE "02 - Tatiana.wav" WAVE TRACK 02 AUDIO TITLE "Tatiana" PERFORMER "Howard Shore" ISRC % INDEX 01 00:00:00FILE "03 - London Streets.wav" WAVE TRACK 03 AUDIO TITLE "London Streets" PERFORMER "Howard Shore" ISRC % INDEX 01 00:00:00FILE "04 - Sometimes Birth and Death Go Together.wav" WAVE TRACK 04 AUDIO TITLE "Sometimes Birth and Death Go Together" PERFORMER "Howard Shore" ISRC % INDEX 01 00:00:00FILE "05 - Trafalgar Hospital.wav" WAVE TRACK 05 AUDIO TITLE "Trafalgar Hospital" PERFORMER "Howard Shore" ISRC % INDEX 01 00:00:00FILE "06 - Vory v Zakone.wav" WAVE TRACK 06 AUDIO TITLE "Vory v Zakone" PERFORMER "Howard Shore" ISRC % INDEX 01 00:00:00FILE "07 - Slavery and Suffering.wav" WAVE TRACK 07 AUDIO TITLE "Slavery and Suffering" PERFORMER "Howard Shore" ISRC % INDEX 01 00:00:00FILE "08 - Nikolai.wav" WAVE TRACK 08 AUDIO TITLE "Nikolai" PERFORMER "Howard Shore" ISRC % INDEX 01 00:00:00FILE "09 - Kirill.wav" WAVE TRACK 09 AUDIO TITLE "Kirill" PERFORMER "Howard Shore" ISRC % INDEX 01 00:00:00FILE "10 - Anna Khitrova.wav" WAVE TRACK 10 AUDIO TITLE "Anna Khitrova" PERFORMER "Howard Shore" ISRC % INDEX 01 00:00:00FILE "11 - Eagle and Star.wav" WAVE TRACK 11 AUDIO TITLE "Eagle and Star" PERFORMER "Howard Shore" ISRC % INDEX 01 00:00:00FILE "12 - Nine Elms.wav" WAVE TRACK 12 AUDIO TITLE "Nine Elms" PERFORMER "Howard Shore" ISRC % INDEX 01 00:00:00FILE "13 - Like a Place in the Bible.wav" WAVE TRACK 13 AUDIO TITLE "Like a Place in the Bible" PERFORMER "Howard Shore" INDEX 01 00:00:00FILE "14 - Trans-Siberian Diary.wav" WAVE TRACK 14 AUDIO TITLE "Trans-Siberian Diary" PERFORMER "Howard Shore" ISRC % INDEX 01 00:00:00
-----------------------

DON'T MODIFY THIS FILE

-----------------------

PERFORMER: auCDtect Task Manager, ver. 1.6.0 RC1 build 1.6.0.1Copyright (c) 2008-2010 y-soft. All rights reservedhttp://y-soft.org

ANALYZER: auCDtect: CD records authenticity detector, version 0.8.2Copyright (c) 2004 Oleg Berngardt. All rights reserved.Copyright (c) 2004 Alexander Djourik. All rights reserved.

FILE: 14 - Trans-Siberian Diary.flac Size: 13627436 Hash: 5F4DA1CBBB916D93ABC231A46B5128E7 Accuracy: -m0 Conclusion: CDDA 62% Signature: 7BA3CAB88330862C7E6CFB543030A5329D1CAD37FILE: 13 - Like a Place in the Bible.flac Size: 6307989 Hash: 6854569651A233AED5FDC923D10B76F6 Accuracy: -m0 Conclusion: ??? Signature: 8603BA46E277FB465ACC85D6F183D7BEEF4B8C6CFILE: 12 - Nine Elms.flac Size: 30130043 Hash: 984C89D8134D267DB24C5B06BE321127 Accuracy: -m0 Conclusion: CDDA 43% Signature: A30F768994F2D2ED51598E207D12A618ABD21D79FILE: 11 - Eagle and Star.flac Size: 6277551 Hash: ACAD686A2863267116B1895664899709 Accuracy: -m0 Conclusion: MPEG 89% Signature: 5C0716AE0BB5F580AA23F6B0CAF0A967A2C9AF12FILE: 10 - Anna Khitrova.flac Size: 16868278 Hash: 22877A354FF7B5C30E5BD230F37F50F7 Accuracy: -m0 Conclusion: MPEG 89% Signature: A3BBE4800C59EDC0453F8800242AA674A888424EFILE: 09 - Kirill.flac Size: 9151069 Hash: 41E179DCE8FDE99DC838D0106A0232F2 Accuracy: -m0 Conclusion: MPEG 93% Signature: 0E8AB363E2F8CD617DB9D81E6B51E1BAD74ACA79FILE: 08 - Nikolai.flac Size: 5425491 Hash: AB4B864E7465F4274C2ECE4EF22559AB Accuracy: -m0 Conclusion: MPEG 97% Signature: 9B0E6D4506D9ED7B8B7F716B0BE06679B8686652FILE: 07 - Slavery and Suffering.flac Size: 7989939 Hash: A61BBC07C315FEAF42144077D646F6F1 Accuracy: -m0 Conclusion: CDDA 100% Signature: FCAB4C89FB8BEB19770C9D8F4B7DF9D8015E47B6FILE: 06 - Vory v Zakone.flac Size: 3228002 Hash: 47F44D184091FC704D66EE54825D4FEA Accuracy: -m0 Conclusion: MPEG 99% Signature: 6D69D90FB1DEABBCE7B3F482296B103736390A3FFILE: 05 - Trafalgar Hospital.flac Size: 7334345 Hash: 48F669B2E98CBE5C70C4B5AE44E35253 Accuracy: -m0 Conclusion: MPEG 93% Signature: 74AD7DBD41C9E0E667136CA1DD58358A6249FDFBFILE: 04 - Sometimes Birth and Death Go Together.flac Size: 8154522 Hash: 09D1DFA7F483AFD14CB49E0766FE60AB Accuracy: -m0 Conclusion: MPEG 92% Signature: A966A90FF2478F38D334E4E4A37B1208890A24ECFILE: 03 - London Streets.flac Size: 8345214 Hash: E10A57241D0F3B6D985EBD0A6F6772D6 Accuracy: -m0 Conclusion: MPEG 100% Signature: 45AE3D1FF1A673C9B6F1A7931328AF55362A0D26FILE: 02 - Tatiana.flac Size: 26789514 Hash: B9A96BE5F0ED0326700563299123ADAB Accuracy: -m0 Conclusion: CDDA 43% Signature: E9E197B61B414EF3BF27B510149FA039326BC04BFILE: 01 - Eastern Promises.flac Size: 25211008 Hash: 81356A76DE4F651670973929344E8A5F Accuracy: -m0 Conclusion: MPEG 90% Signature: AFADFCCB5CA947AF55CC17CB3202C383708DE329


Трекер:  [ 27-Ноя-2014 11:00 ]

  

Скачать .torrent

Размер .torrent файла 14 KB


Размер: 167 MB
Хэш (hash) релиза: a73a04d17b546860c7ddf1340201b946aa4dc333

Еще никто не оставлял запись к записи скачать торрент Порок на экспорт Eastern Promises . Будь первым!

!Обратная связь