Скачать через торрент музыку Военные песни в кино. Была война. - 2005, FLAC бесплатно без регистрации torrent

Если у вас наблюдаются проблемы со скриншотами, переходом по ссылками, скачиванием торрентов - проблемы в блокировщике рекламы AdBlock. #хорошегоДня!


Статистика раздачи
Размер:  179 MB   |    Зарегистрирован:  3 года   |    .torrent скачан:  52 раза   |   
Раздают:  1  
   
Загрузка...
 
Автор Сообщение

Galfimbul

avatar Galfimbul


Военные песни в кино. Была война.

Жанр: Soundtrack
Год выпуска диска: 2005
Страна-производитель диска: Россия
Издатель (лейбл): Бомба Мьюзик
Номер по каталогу: BoMB 033-173
Аудиокодек: FLAC (*.flac)
Тип рипа: tracks+.cue
Битрейт аудио: lossless
Продолжительность: 43:57
Источник: собственный рип
Наличие сканов в содержимом раздачи: да
Треклист:
1. Если завтра война (к/ф Если завтра война, 1938) (03:48) - Хор
2. Песня артиллеристов (к/ф В 6 часов вечера после войны, 1944) (02:45) - Хор
3. На безымянной высоте (к/ф Тишина, 1963) (03:03) - Барашков Лев
4. Есть такая война (к/ф Бой после победы, 1972) (01:57) - Горохов Андрей
5. Грузовичок-фронтовичок (к/ф Репортаж с линии огня, 1984) (02:03) - Хиль Эдуард
6. Минуты тишины (к/ф Батальоны просят огня, 1985) (02:36) - Караченцов Николай
7. Песня о тишине (к/ф Майор Вихрь, 1967) (02:21) - Трошин Владимир
8. Последний бой (к/ф Освобождение, 1968-71) (02:34) - Ножкин Михаил
9. Путь наш пролег (к/ф Весна на Одере, 1967) (01:50) - Силантьев Юрий
10. Песня десятого десантного батальона (к/ф Белорусский вокзал, 1970) (03:02) - Ургант Нина
11. Если б не было войны (к/ф Верю в радугу, 1986) (05:06) - Валентина Толкунова
12. Бери шинель (к/ф От зари до зари, 1975) (04:52) - Иванов Борис
13. Была война (к/ф Командир счастливой щуки, 1972) (02:48) - Хачатурян Арам
14. С чего начинается Родина (к/ф Щит и меч, 1968) (02:21) - Бернес Марк
15. Песня о фронтовом кинооператоре (к/ф Репортаж с линии огня, 1984) (02:51) - Хачатурян Арам
Exact Audio Copy V1.0 beta 3 from 29. August 2011

EAC extraction logfile from 31. May 2014, 15:55

Various Artists / Была Война - Военные песни в кино

Used drive : PLEXTOR DVDR PX-L890SA Adapter: 0 ID: 1

Read mode : SecureUtilize accurate stream : YesDefeat audio cache : YesMake use of C2 pointers : No

Read offset correction : 6Overread into Lead-In and Lead-Out : NoFill up missing offset samples with silence : YesDelete leading and trailing silent blocks : NoNull samples used in CRC calculations : YesUsed interface : Native Win32 interface for Win NT & 2000Gap handling : Appended to previous track

Used output format : User Defined EncoderSelected bitrate : 768 kBit/sQuality : HighAdd ID3 tag : NoCommand line compressor : C:\Program Files\Exact Audio Copy\FLAC\FLAC.EXEAdditional command line options : -V -8 -T "Genre=%genre%" -T "Artist=%artist%" -T "Title=%title%" -T "Album=%albumtitle%" -T "Date=%year%" -T "Tracknumber=%tracknr%" -T "Comment=%comment%" %source%

TOC of the extracted CD

Track | Start | Length | Start sector | End sector --------------------------------------------------------- 1 | 0:00.00 | 3:47.72 | 0 | 17096 2 | 3:47.72 | 2:45.34 | 17097 | 29505 3 | 6:33.31 | 3:02.72 | 29506 | 43227 4 | 9:36.28 | 1:57.31 | 43228 | 52033 5 | 11:33.59 | 2:03.60 | 52034 | 61318 6 | 13:37.44 | 2:36.61 | 61319 | 73079 7 | 16:14.30 | 2:21.62 | 73080 | 83716 8 | 18:36.17 | 2:34.21 | 83717 | 95287 9 | 21:10.38 | 1:50.49 | 95288 | 103586 10 | 23:01.12 | 3:02.24 | 103587 | 117260 11 | 26:03.36 | 5:06.39 | 117261 | 140249 12 | 31:10.00 | 4:52.19 | 140250 | 162168 13 | 36:02.19 | 2:48.26 | 162169 | 174794 14 | 38:50.45 | 2:21.34 | 174795 | 185403 15 | 41:12.04 | 2:51.46 | 185404 | 198274

Track 1

Filename F:\torrent\Была Война_Военные песни в кино\ost\01. Хор - Если завтра война (к,ф ''Если завтра война'', 1938).wav

Pre-gap length 0:00:02.00

Peak level 93.3 % Extraction speed 5.1 X Track quality 100.0 % Test CRC 3326F766 Copy CRC 3326F766 Track not present in AccurateRip database Copy OK

Track 2

Filename F:\torrent\Была Война_Военные песни в кино\ost\02. Хор - Песня артиллеристов (к,ф ''В шесть часов вечера после войны'', 1944).wav

Pre-gap length 0:00:01.58

Peak level 97.7 % Extraction speed 5.3 X Track quality 100.0 % Test CRC 7F332652 Copy CRC 7F332652 Track not present in AccurateRip database Copy OK

Track 3

Filename F:\torrent\Была Война_Военные песни в кино\ost\03. Барашков Лев - На безымянной высоте (к,ф ''Тишина'', 1963).wav

Pre-gap length 0:00:01.58

Peak level 97.7 % Extraction speed 5.7 X Track quality 100.0 % Test CRC E68532AD Copy CRC E68532AD Track not present in AccurateRip database Copy OK

Track 4

Filename F:\torrent\Была Война_Военные песни в кино\ost\04. Горохов Андрей - Есть такая война (к,ф ''Бой после победы'', 1972).wav

Pre-gap length 0:00:01.58

Peak level 79.2 % Extraction speed 5.5 X Track quality 100.0 % Test CRC E359F41E Copy CRC E359F41E Track not present in AccurateRip database Copy OK

Track 5

Filename F:\torrent\Была Война_Военные песни в кино\ost\05. Хиль Эдуард - Грузовичок-фронтовичок (к,ф ''Репортаж с линии огня'', 1984).wav

Pre-gap length 0:00:01.58

Peak level 52.7 % Extraction speed 4.7 X Track quality 99.9 % Test CRC 89B0230D Copy CRC 89B0230D Track not present in AccurateRip database Copy OK

Track 6

Filename F:\torrent\Была Война_Военные песни в кино\ost\06. Караченцов Николай - Минуты тишины (к,ф ''Батальоны просят огня'', 1985).wav

Pre-gap length 0:00:01.58

Peak level 60.1 % Extraction speed 6.3 X Track quality 100.0 % Test CRC 73E1F6D3 Copy CRC 73E1F6D3 Track not present in AccurateRip database Copy OK

Track 7

Filename F:\torrent\Была Война_Военные песни в кино\ost\07. Трошин Владимир - Песня о тишине (к,ф ''Майор Вихрь'', 1967).wav

Pre-gap length 0:00:01.58

Peak level 74.2 % Extraction speed 6.4 X Track quality 100.0 % Test CRC 5B3DD1A9 Copy CRC 5B3DD1A9 Track not present in AccurateRip database Copy OK

Track 8

Filename F:\torrent\Была Война_Военные песни в кино\ost\08. Ножкин Михаил - Последний бой (к,ф ''Освобождение'', 1968-71).wav

Pre-gap length 0:00:01.58

Peak level 81.9 % Extraction speed 6.7 X Track quality 100.0 % Test CRC B0D57B9C Copy CRC B0D57B9C Track not present in AccurateRip database Copy OK

Track 9

Filename F:\torrent\Была Война_Военные песни в кино\ost\09. Силантьев Юрий - Путь наш пролег (к,ф ''Весна на Одере'', 1967).wav

Pre-gap length 0:00:01.58

Peak level 88.2 % Extraction speed 6.4 X Track quality 100.0 % Test CRC C030CB2A Copy CRC C030CB2A Track not present in AccurateRip database Copy OK

Track 10

Filename F:\torrent\Была Война_Военные песни в кино\ost\10. Ургант Нина - Песня десятого десантного батальона (к,ф ''Белорусский вокзал'', 1970).wav

Pre-gap length 0:00:01.58

Peak level 90.4 % Extraction speed 7.3 X Track quality 100.0 % Test CRC 042E3134 Copy CRC 042E3134 Track not present in AccurateRip database Copy OK

Track 11

Filename F:\torrent\Была Война_Военные песни в кино\ost\11. Валентина Толкунова - Если б не было войны (к,ф ''Верю в радугу'', 1986).wav

Pre-gap length 0:00:01.58

Peak level 95.5 % Extraction speed 8.4 X Track quality 100.0 % Test CRC 369F9F1C Copy CRC 369F9F1C Track not present in AccurateRip database Copy OK

Track 12

Filename F:\torrent\Была Война_Военные песни в кино\ost\12. Иванов Борис - Бери шинель (к,ф ''От зари до зари'', 1975).wav

Pre-gap length 0:00:03.67

Peak level 97.7 % Extraction speed 8.7 X Track quality 100.0 % Test CRC 2A398545 Copy CRC 2A398545 Track not present in AccurateRip database Copy OK

Track 13

Filename F:\torrent\Была Война_Военные песни в кино\ost\13. Хачатурян Арам - Была война (к,ф ''Командир счастливой ''Щуки'', 1972).wav

Pre-gap length 0:00:01.58

Peak level 65.1 % Extraction speed 8.2 X Track quality 100.0 % Test CRC 2AFBC16F Copy CRC 2AFBC16F Track not present in AccurateRip database Copy OK

Track 14

Filename F:\torrent\Была Война_Военные песни в кино\ost\14. Бернес Марк - С чего начинается Родина (к,ф ''Щит и меч'', 1968).wav

Pre-gap length 0:00:01.58

Peak level 87.1 % Extraction speed 8.1 X Track quality 100.0 % Test CRC 2F685E98 Copy CRC 2F685E98 Track not present in AccurateRip database Copy OK

Track 15

Filename F:\torrent\Была Война_Военные песни в кино\ost\15. Хачатурян Арам - Песня о фронтовом кинооператоре (к,ф ''Репортаж с линии огня'', 1984).wav

Pre-gap length 0:00:01.58

Peak level 92.6 % Extraction speed 8.6 X Track quality 100.0 % Test CRC AA526A96 Copy CRC AA526A96 Track not present in AccurateRip database Copy OK

None of the tracks are present in the AccurateRip database

No errors occurred

End of status report

==== Log checksum 544B53AA1D8AB29BA2D470C27130FA0DC66E2565ABF3D6FC78240140765348DF ====
REM GENRE OtherREM DATE 2005REM DISCID E10A530FREM COMMENT "ExactAudioCopy v1.0b3"PERFORMER "Various Artists"TITLE "Была Война - Военные песни в кино"FILE "01. Хор - Если завтра война (к,ф ''Если завтра война'', 1938).wav" WAVE TRACK 01 AUDIO TITLE "Если завтра война (к/ф 'Если завтра война', 1938)" PERFORMER "Хор" INDEX 01 00:00:00 TRACK 02 AUDIO TITLE "Песня артиллеристов (к/ф 'В шесть часов вечера после войны', 1944)" PERFORMER "Хор" INDEX 00 03:46:14FILE "02. Хор - Песня артиллеристов (к,ф ''В шесть часов вечера после войны'', 1944).wav" WAVE INDEX 01 00:00:00 TRACK 03 AUDIO TITLE "На безымянной высоте (к/ф 'Тишина', 1963)" PERFORMER "Барашков Лев" INDEX 00 02:43:51FILE "03. Барашков Лев - На безымянной высоте (к,ф ''Тишина'', 1963).wav" WAVE INDEX 01 00:00:00 TRACK 04 AUDIO TITLE "Есть такая война (к/ф 'Бой после победы', 1972)" PERFORMER "Горохов Андрей" INDEX 00 03:01:14FILE "04. Горохов Андрей - Есть такая война (к,ф ''Бой после победы'', 1972).wav" WAVE INDEX 01 00:00:00 TRACK 05 AUDIO TITLE "Грузовичок-фронтовичок (к/ф 'Репортаж с линии огня', 1984)" PERFORMER "Хиль Эдуард" INDEX 00 01:55:48FILE "05. Хиль Эдуард - Грузовичок-фронтовичок (к,ф ''Репортаж с линии огня'', 1984).wav" WAVE INDEX 01 00:00:00 TRACK 06 AUDIO TITLE "Минуты тишины (к/ф 'Батальоны просят огня', 1985)" PERFORMER "Караченцов Николай" INDEX 00 02:02:02FILE "06. Караченцов Николай - Минуты тишины (к,ф ''Батальоны просят огня'', 1985).wav" WAVE INDEX 01 00:00:00 TRACK 07 AUDIO TITLE "Песня о тишине (к/ф 'Майор Вихрь', 1967)" PERFORMER "Трошин Владимир" INDEX 00 02:35:03FILE "07. Трошин Владимир - Песня о тишине (к,ф ''Майор Вихрь'', 1967).wav" WAVE INDEX 01 00:00:00 TRACK 08 AUDIO TITLE "Последний бой (к/ф 'Освобождение', 1968-71)" PERFORMER "Ножкин Михаил" INDEX 00 02:20:04FILE "08. Ножкин Михаил - Последний бой (к,ф ''Освобождение'', 1968-71).wav" WAVE INDEX 01 00:00:00 TRACK 09 AUDIO TITLE "Путь наш пролег (к/ф 'Весна на Одере', 1967) " PERFORMER "Силантьев Юрий" INDEX 00 02:32:38FILE "09. Силантьев Юрий - Путь наш пролег (к,ф ''Весна на Одере'', 1967).wav" WAVE INDEX 01 00:00:00 TRACK 10 AUDIO TITLE "Песня десятого десантного батальона (к/ф 'Белорусский вокзал', 1970)" PERFORMER "Ургант Нина" INDEX 00 01:48:66FILE "10. Ургант Нина - Песня десятого десантного батальона (к,ф ''Белорусский вокзал'', 1970).wav" WAVE INDEX 01 00:00:00 TRACK 11 AUDIO TITLE "Если б не было войны (к/ф 'Верю в радугу', 1986)" PERFORMER "Валентина Толкунова" INDEX 00 03:00:41FILE "11. Валентина Толкунова - Если б не было войны (к,ф ''Верю в радугу'', 1986).wav" WAVE INDEX 01 00:00:00 TRACK 12 AUDIO TITLE "Бери шинель (к/ф 'От зари до зари', 1975)" PERFORMER "Иванов Борис" INDEX 00 05:02:47FILE "12. Иванов Борис - Бери шинель (к,ф ''От зари до зари'', 1975).wav" WAVE INDEX 01 00:00:00 TRACK 13 AUDIO TITLE "Была война (к/ф 'Командир счастливой 'Щуки', 1972)" PERFORMER "Хачатурян Арам" INDEX 00 04:50:36FILE "13. Хачатурян Арам - Была война (к,ф ''Командир счастливой ''Щуки'', 1972).wav" WAVE INDEX 01 00:00:00 TRACK 14 AUDIO TITLE "С чего начинается Родина (к/ф 'Щит и меч', 1968)" PERFORMER "Бернес Марк" INDEX 00 02:46:43FILE "14. Бернес Марк - С чего начинается Родина (к,ф ''Щит и меч'', 1968).wav" WAVE INDEX 01 00:00:00 TRACK 15 AUDIO TITLE "Песня о фронтовом кинооператоре (к/ф 'Репортаж с линии огня', 1984)" PERFORMER "Хачатурян Арам" INDEX 00 02:19:51FILE "15. Хачатурян Арам - Песня о фронтовом кинооператоре (к,ф ''Репортаж с линии огня'', 1984).wav" WAVE INDEX 01 00:00:00
AUDIOCHECKER v2.0 beta (build 457) - by Dester - opdester@freemail.hu~~~~~~~~~~~~~~~~~~~~~~~~~~~~~~~~~~-=== НЕ РЕДАКТИРУЙТЕ ЭТОТ ФАЙЛ! ===-

Путь: ...\ost

01 -=- 01. Хор - Если завтра война (к,ф ''Если завтра война'', 1938).flac -=- MPEG (95%)02 -=- 02. Хор - Песня артиллеристов (к,ф ''В шесть часов вечера после войны'', 1944).flac -=- CDDA (100%)03 -=- 03. Барашков Лев - На безымянной высоте (к,ф ''Тишина'', 1963).flac -=- MPEG (100%)04 -=- 04. Горохов Андрей - Есть такая война (к,ф ''Бой после победы'', 1972).flac -=- CDDA (100%)05 -=- 05. Хиль Эдуард - Грузовичок-фронтовичок (к,ф ''Репортаж с линии огня'', 1984).flac -=- CDDA (100%)06 -=- 06. Караченцов Николай - Минуты тишины (к,ф ''Батальоны просят огня'', 1985).flac -=- CDDA (100%)07 -=- 07. Трошин Владимир - Песня о тишине (к,ф ''Майор Вихрь'', 1967).flac -=- CDDA (100%)08 -=- 08. Ножкин Михаил - Последний бой (к,ф ''Освобождение'', 1968-71).flac -=- CDDA (99%)09 -=- 09. Силантьев Юрий - Путь наш пролег (к,ф ''Весна на Одере'', 1967).flac -=- CDDA (100%)10 -=- 10. Ургант Нина - Песня десятого десантного батальона (к,ф ''Белорусский вокзал'', 1970).flac -=- CDDA (94%)11 -=- 11. Валентина Толкунова - Если б не было войны (к,ф ''Верю в радугу'', 1986).flac -=- CDDA (100%)12 -=- 12. Иванов Борис - Бери шинель (к,ф ''От зари до зари'', 1975).flac -=- MPEG (99%)13 -=- 13. Хачатурян Арам - Была война (к,ф ''Командир счастливой ''Щуки'', 1972).flac -=- CDDA (100%)14 -=- 14. Бернес Марк - С чего начинается Родина (к,ф ''Щит и меч'', 1968).flac -=- CDDA (100%)15 -=- 15. Хачатурян Арам - Песня о фронтовом кинооператоре (к,ф ''Репортаж с линии огня'', 1984).flac -=- CDDA (99%)

Сводка 79,87% CDDA

26480852


Трекер:  [ 27-Ноя-2014 11:00 ]

  

Скачать .torrent

Размер .torrent файла 17 KB


Размер: 179 MB
Хэш (hash) релиза: bc465bc4668e343b9cdfbce78a726a0248c801f4

Еще никто не оставлял запись к записи скачать торрент Военные песни в кино. Была война. - 2005, FLAC . Будь первым!

!Обратная связь