Скачать через торрент музыку Мания Жизели - Дневник его жены бесплатно без регистрации torrent

Если у вас наблюдаются проблемы со скриншотами, переходом по ссылками, скачиванием торрентов - проблемы в блокировщике рекламы AdBlock. #хорошегоДня!


Статистика раздачи
Размер:  236 MB   |    Зарегистрирован:  3 года   |    .torrent скачан:  30 раз   |   
Раздают:  1  
   
Загрузка...
 
Автор Сообщение

Galfimbul

avatar Galfimbul


Мания Жизели - Дневник его жены (Музыка из фильмов Алексея Учителя)
*Giselles Mania / His Wifes Diary (Soundtrack To Film Alexey Uchitel)*


Жанр: Score, Classical
Композитор: Леонид Десятников
Год выпуска диска: 2000
Год выпуска фильма: 1995/2000
Страна-производитель диска: Russia
Издатель (лейбл): Film Studio Rock
Аудиокодек: FLAC (*.flac)
Тип рипа: tracks+.cue
Битрейт аудио: lossless
Продолжительность: 48:39
Источник: собственный рип
Наличие сканов в содержимом раздачи: да
Треклист:
"Мания Жизели"
01 - Giselle's Mania. Tuning
02 - Giselle's Mania. Prologue
03 - Giselle's Mania. Main theme
04 - Giselle's Mania. The dream of Volinski
05 - Giselle's Mania. After visiting the Asylum
06 - Giselle's Mania. The shooting continues
07 - Giselle's Mania. Lidochka Ivanova
08 - Giselle's Mania. The drawing
09 - Giselle's Mania. Lifar
10 - Giselle's Mania. Pastorale
11 - Giselle's Mania. Paris
12 - Giselle's Mania. Fainting
13 - Giselle's Mania. The final

"Дневник его жены"
14 - His Wife's Diary. Titles
15 - His Wife's Diary. Leaving
16 - His Wife's Diary. By the sea
17 - His Wife's Diary. Night
18 - His Wife's Diary. The dog
19 - His Wife's Diary. Galya and Marga
20 - His Wife's Diary. Celebration
21 - His Wife's Diary. The kiss
22 - His Wife's Diary. Sonya and Bunin
23 - His Wife's Diary. Bunin's theme
24 - His Wife's Diary. Walsing an the ball
25 - Giselle's Mania. Nocturne (bonus)
Exact Audio Copy V1.0 beta 3 from 29. August 2011

EAC extraction logfile from 22. April 2014, 14:21

Desyatnikov Leonid / Giselle's Mania and His Wife's Diary

Used drive : PLEXTOR DVDR PX-L890SA Adapter: 0 ID: 1

Read mode : SecureUtilize accurate stream : YesDefeat audio cache : YesMake use of C2 pointers : No

Read offset correction : 6Overread into Lead-In and Lead-Out : NoFill up missing offset samples with silence : YesDelete leading and trailing silent blocks : NoNull samples used in CRC calculations : YesUsed interface : Native Win32 interface for Win NT & 2000Gap handling : Appended to previous track

Used output format : User Defined EncoderSelected bitrate : 768 kBit/sQuality : HighAdd ID3 tag : NoCommand line compressor : C:\Program Files\Exact Audio Copy\FLAC\FLAC.EXEAdditional command line options : -V -8 -T "Genre=%genre%" -T "Artist=%artist%" -T "Title=%title%" -T "Album=%albumtitle%" -T "Date=%year%" -T "Tracknumber=%tracknr%" -T "Comment=%comment%" %source%

TOC of the extracted CD

Track | Start | Length | Start sector | End sector --------------------------------------------------------- 1 | 0:00.00 | 0:46.42 | 0 | 3491 2 | 0:46.42 | 2:34.23 | 3492 | 15064 3 | 3:20.65 | 2:07.55 | 15065 | 24644 4 | 5:28.45 | 1:31.62 | 24645 | 31531 5 | 7:00.32 | 1:02.40 | 31532 | 36221 6 | 8:02.72 | 2:06.48 | 36222 | 45719 7 | 10:09.45 | 1:37.60 | 45720 | 53054 8 | 11:47.30 | 1:21.35 | 53055 | 59164 9 | 13:08.65 | 1:30.42 | 59165 | 65956 10 | 14:39.32 | 1:08.38 | 65957 | 71094 11 | 15:47.70 | 1:04.52 | 71095 | 75946 12 | 16:52.47 | 1:17.18 | 75947 | 81739 13 | 18:09.65 | 3:56.67 | 81740 | 99506 14 | 22:06.57 | 1:06.08 | 99507 | 104464 15 | 23:12.65 | 1:00.35 | 104465 | 108999 16 | 24:13.25 | 2:31.20 | 109000 | 120344 17 | 26:44.45 | 2:01.47 | 120345 | 129466 18 | 28:46.17 | 1:18.48 | 129467 | 135364 19 | 30:04.65 | 4:50.42 | 135365 | 157156 20 | 34:55.32 | 1:19.58 | 157157 | 163139 21 | 36:15.15 | 2:36.25 | 163140 | 174864 22 | 38:51.40 | 0:47.10 | 174865 | 178399 23 | 39:38.50 | 2:48.30 | 178400 | 191029 24 | 42:27.05 | 2:24.30 | 191030 | 201859 25 | 44:51.35 | 3:47.42 | 201860 | 218926

Track 1

Filename F:\torrent\Giselle_s Mania and His Wif_s Diary_Desyatnikov Leonid\score\01 Giselle's Mania. Tuning.wav

Pre-gap length 0:00:02.00

Peak level 50.1 % Extraction speed 2.9 X Track quality 100.0 % Test CRC 78F32665 Copy CRC 78F32665 Track not present in AccurateRip database Copy OK

Track 2

Filename F:\torrent\Giselle_s Mania and His Wif_s Diary_Desyatnikov Leonid\score\02 Giselle's Mania. Prologue.wav

Peak level 72.7 % Extraction speed 4.5 X Track quality 100.0 % Test CRC 77C82766 Copy CRC 77C82766 Track not present in AccurateRip database Copy OK

Track 3

Filename F:\torrent\Giselle_s Mania and His Wif_s Diary_Desyatnikov Leonid\score\03 Giselle's Mania. Main theme.wav

Pre-gap length 0:00:01.28

Peak level 73.7 % Extraction speed 4.5 X Track quality 100.0 % Test CRC 8F912763 Copy CRC 8F912763 Track not present in AccurateRip database Copy OK

Track 4

Filename F:\torrent\Giselle_s Mania and His Wif_s Diary_Desyatnikov Leonid\score\04 Giselle's Mania. The dream of Volinski.wav

Pre-gap length 0:00:01.44

Peak level 65.1 % Extraction speed 4.4 X Track quality 100.0 % Test CRC E97267BD Copy CRC E97267BD Track not present in AccurateRip database Copy OK

Track 5

Filename F:\torrent\Giselle_s Mania and His Wif_s Diary_Desyatnikov Leonid\score\05 Giselle's Mania. After visiting the Asylum.wav

Pre-gap length 0:00:01.67

Peak level 28.4 % Extraction speed 3.9 X Track quality 100.0 % Test CRC DA8E0E09 Copy CRC DA8E0E09 Track not present in AccurateRip database Copy OK

Track 6

Filename F:\torrent\Giselle_s Mania and His Wif_s Diary_Desyatnikov Leonid\score\06 Giselle's Mania. The shooting continues.wav

Pre-gap length 0:00:03.45

Peak level 54.6 % Extraction speed 5.1 X Track quality 100.0 % Test CRC D0AE3DA9 Copy CRC D0AE3DA9 Track not present in AccurateRip database Copy OK

Track 7

Filename F:\torrent\Giselle_s Mania and His Wif_s Diary_Desyatnikov Leonid\score\07 Giselle's Mania. Lidochka Ivanova.wav

Pre-gap length 0:00:02.50

Peak level 63.9 % Extraction speed 5.0 X Track quality 100.0 % Test CRC 2CA33E4C Copy CRC 2CA33E4C Track not present in AccurateRip database Copy OK

Track 8

Filename F:\torrent\Giselle_s Mania and His Wif_s Diary_Desyatnikov Leonid\score\08 Giselle's Mania. The drawing.wav

Pre-gap length 0:00:01.00

Peak level 60.1 % Extraction speed 4.7 X Track quality 100.0 % Test CRC ACCD39EC Copy CRC ACCD39EC Track not present in AccurateRip database Copy OK

Track 9

Filename F:\torrent\Giselle_s Mania and His Wif_s Diary_Desyatnikov Leonid\score\09 Giselle's Mania. Lifar.wav

Pre-gap length 0:00:01.73

Peak level 45.1 % Extraction speed 5.1 X Track quality 100.0 % Test CRC 60CB3B27 Copy CRC 60CB3B27 Track not present in AccurateRip database Copy OK

Track 10

Filename F:\torrent\Giselle_s Mania and His Wif_s Diary_Desyatnikov Leonid\score\10 Giselle's Mania. Pastorale.wav

Pre-gap length 0:00:01.22

Peak level 28.9 % Extraction speed 4.7 X Track quality 100.0 % Test CRC 31BEFAD1 Copy CRC 31BEFAD1 Track not present in AccurateRip database Copy OK

Track 11

Filename F:\torrent\Giselle_s Mania and His Wif_s Diary_Desyatnikov Leonid\score\11 Giselle's Mania. Paris.wav

Pre-gap length 0:00:01.48

Peak level 24.0 % Extraction speed 4.7 X Track quality 100.0 % Test CRC CD8FE7D5 Copy CRC CD8FE7D5 Track not present in AccurateRip database Copy OK

Track 12

Filename F:\torrent\Giselle_s Mania and His Wif_s Diary_Desyatnikov Leonid\score\12 Giselle's Mania. Fainting.wav

Pre-gap length 0:00:01.66

Peak level 61.6 % Extraction speed 5.1 X Track quality 100.0 % Test CRC 5F8F028E Copy CRC 5F8F028E Track not present in AccurateRip database Copy OK

Track 13

Filename F:\torrent\Giselle_s Mania and His Wif_s Diary_Desyatnikov Leonid\score\13 Giselle's Mania. The final.wav

Pre-gap length 0:00:01.38

Peak level 43.6 % Extraction speed 6.9 X Track quality 100.0 % Test CRC BC4B6E7D Copy CRC BC4B6E7D Track not present in AccurateRip database Copy OK

Track 14

Filename F:\torrent\Giselle_s Mania and His Wif_s Diary_Desyatnikov Leonid\score\14 His Wife's Diary. Titles.wav

Pre-gap length 0:00:08.07

Peak level 26.4 % Extraction speed 5.2 X Track quality 100.0 % Test CRC D817AB5D Copy CRC D817AB5D Track not present in AccurateRip database Copy OK

Track 15

Filename F:\torrent\Giselle_s Mania and His Wif_s Diary_Desyatnikov Leonid\score\15 His Wife's Diary. Leaving.wav

Peak level 44.6 % Extraction speed 5.1 X Track quality 100.0 % Test CRC CBFBB2DC Copy CRC CBFBB2DC Track not present in AccurateRip database Copy OK

Track 16

Filename F:\torrent\Giselle_s Mania and His Wif_s Diary_Desyatnikov Leonid\score\16 His Wife's Diary. By the sea.wav

Pre-gap length 0:00:02.08

Peak level 29.4 % Extraction speed 6.9 X Track quality 100.0 % Test CRC D00BC3D9 Copy CRC D00BC3D9 Track not present in AccurateRip database Copy OK

Track 17

Filename F:\torrent\Giselle_s Mania and His Wif_s Diary_Desyatnikov Leonid\score\17 His Wife's Diary. Night.wav

Pre-gap length 0:00:01.30

Peak level 17.4 % Extraction speed 6.7 X Track quality 100.0 % Test CRC B3E4061A Copy CRC B3E4061A Track not present in AccurateRip database Copy OK

Track 18

Filename F:\torrent\Giselle_s Mania and His Wif_s Diary_Desyatnikov Leonid\score\18 His Wife's Diary. The dog.wav

Pre-gap length 0:00:01.30

Peak level 26.4 % Extraction speed 6.0 X Track quality 100.0 % Test CRC 5AF40C45 Copy CRC 5AF40C45 Track not present in AccurateRip database Copy OK

Track 19

Filename F:\torrent\Giselle_s Mania and His Wif_s Diary_Desyatnikov Leonid\score\19 His Wife's Diary. Galya and Marga.wav

Pre-gap length 0:00:01.53

Peak level 19.4 % Extraction speed 8.2 X Track quality 100.0 % Test CRC B0680295 Copy CRC B0680295 Track not present in AccurateRip database Copy OK

Track 20

Filename F:\torrent\Giselle_s Mania and His Wif_s Diary_Desyatnikov Leonid\score\20 His Wife's Diary. Celebration.wav

Pre-gap length 0:00:01.50

Peak level 28.9 % Extraction speed 6.5 X Track quality 100.0 % Test CRC DC9E0292 Copy CRC DC9E0292 Track not present in AccurateRip database Copy OK

Track 21

Filename F:\torrent\Giselle_s Mania and His Wif_s Diary_Desyatnikov Leonid\score\21 His Wife's Diary. The kiss.wav

Pre-gap length 0:00:02.57

Peak level 31.9 % Extraction speed 6.6 X Track quality 99.9 % Test CRC 0E47F9F6 Copy CRC 0E47F9F6 Track not present in AccurateRip database Copy OK

Track 22

Filename F:\torrent\Giselle_s Mania and His Wif_s Diary_Desyatnikov Leonid\score\22 His Wife's Diary. Sonya and Bunin.wav

Pre-gap length 0:00:01.58

Peak level 24.2 % Extraction speed 3.7 X Track quality 99.7 % Test CRC A54342B6 Copy CRC A54342B6 Track not present in AccurateRip database Copy OK

Track 23

Filename F:\torrent\Giselle_s Mania and His Wif_s Diary_Desyatnikov Leonid\score\23 His Wife's Diary. Bunin's theme.wav

Pre-gap length 0:00:01.45

Peak level 44.6 % Extraction speed 8.2 X Track quality 100.0 % Test CRC D64B580F Copy CRC D64B580F Track not present in AccurateRip database Copy OK

Track 24

Filename F:\torrent\Giselle_s Mania and His Wif_s Diary_Desyatnikov Leonid\score\24 His Wife's Diary. Walsing an the ball.wav

Pre-gap length 0:00:02.73

Peak level 42.2 % Extraction speed 6.6 X Track quality 99.9 % Test CRC B1271451 Copy CRC B1271451 Track not present in AccurateRip database Copy OK

Track 25

Filename F:\torrent\Giselle_s Mania and His Wif_s Diary_Desyatnikov Leonid\score\25 Giselle's Mania. Nocturne (bonus).wav

Pre-gap length 0:00:05.15

Peak level 70.7 % Extraction speed 8.9 X Track quality 100.0 % Test CRC E2707393 Copy CRC E2707393 Track not present in AccurateRip database Copy OK

None of the tracks are present in the AccurateRip database

No errors occurred

End of status report

==== Log checksum BD4892827689D30C509015B7D9415F1EC24F93DACAEA808909C7F170E261AB5A ====
REM GENRE SoundtrackREM DATE 2000REM DISCID 500B6719REM COMMENT "ExactAudioCopy v1.0b3"PERFORMER "Desyatnikov Leonid"TITLE "Giselle's Mania and His Wife's Diary"FILE "01 Giselle's Mania. Tuning.wav" WAVE TRACK 01 AUDIO TITLE "Giselle's Mania. Tuning" PERFORMER "Desyatnikov Leonid" INDEX 01 00:00:00FILE "02 Giselle's Mania. Prologue.wav" WAVE TRACK 02 AUDIO TITLE "Giselle's Mania. Prologue" PERFORMER "Desyatnikov Leonid" INDEX 01 00:00:00 TRACK 03 AUDIO TITLE "Giselle's Mania. Main theme" PERFORMER "Desyatnikov Leonid" INDEX 00 02:32:70FILE "03 Giselle's Mania. Main theme.wav" WAVE INDEX 01 00:00:00 TRACK 04 AUDIO TITLE "Giselle's Mania. The dream of Volinski" PERFORMER "Desyatnikov Leonid" INDEX 00 02:06:11FILE "04 Giselle's Mania. The dream of Volinski.wav" WAVE INDEX 01 00:00:00 TRACK 05 AUDIO TITLE "Giselle's Mania. After visiting the Asylum" PERFORMER "Desyatnikov Leonid" INDEX 00 01:29:70FILE "05 Giselle's Mania. After visiting the Asylum.wav" WAVE INDEX 01 00:00:00 TRACK 06 AUDIO TITLE "Giselle's Mania. The shooting continues" PERFORMER "Desyatnikov Leonid" INDEX 00 00:58:70FILE "06 Giselle's Mania. The shooting continues.wav" WAVE INDEX 01 00:00:00 TRACK 07 AUDIO TITLE "Giselle's Mania. Lidochka Ivanova" PERFORMER "Desyatnikov Leonid" INDEX 00 02:03:73FILE "07 Giselle's Mania. Lidochka Ivanova.wav" WAVE INDEX 01 00:00:00 TRACK 08 AUDIO TITLE "Giselle's Mania. The drawing" PERFORMER "Desyatnikov Leonid" INDEX 00 01:36:60FILE "08 Giselle's Mania. The drawing.wav" WAVE INDEX 01 00:00:00 TRACK 09 AUDIO TITLE "Giselle's Mania. Lifar" PERFORMER "Desyatnikov Leonid" INDEX 00 01:19:37FILE "09 Giselle's Mania. Lifar.wav" WAVE INDEX 01 00:00:00 TRACK 10 AUDIO TITLE "Giselle's Mania. Pastorale" PERFORMER "Desyatnikov Leonid" INDEX 00 01:29:20FILE "10 Giselle's Mania. Pastorale.wav" WAVE INDEX 01 00:00:00 TRACK 11 AUDIO TITLE "Giselle's Mania. Paris" PERFORMER "Desyatnikov Leonid" INDEX 00 01:06:65FILE "11 Giselle's Mania. Paris.wav" WAVE INDEX 01 00:00:00 TRACK 12 AUDIO TITLE "Giselle's Mania. Fainting" PERFORMER "Desyatnikov Leonid" INDEX 00 01:02:61FILE "12 Giselle's Mania. Fainting.wav" WAVE INDEX 01 00:00:00 TRACK 13 AUDIO TITLE "Giselle's Mania. The final" PERFORMER "Desyatnikov Leonid" INDEX 00 01:15:55FILE "13 Giselle's Mania. The final.wav" WAVE INDEX 01 00:00:00 TRACK 14 AUDIO TITLE "His Wife's Diary. Titles" PERFORMER "Desyatnikov Leonid" INDEX 00 03:48:60FILE "14 His Wife's Diary. Titles.wav" WAVE INDEX 01 00:00:00FILE "15 His Wife's Diary. Leaving.wav" WAVE TRACK 15 AUDIO TITLE "His Wife's Diary. Leaving" PERFORMER "Desyatnikov Leonid" INDEX 01 00:00:00 TRACK 16 AUDIO TITLE "His Wife's Diary. By the sea" PERFORMER "Desyatnikov Leonid" INDEX 00 00:58:27FILE "16 His Wife's Diary. By the sea.wav" WAVE INDEX 01 00:00:00 TRACK 17 AUDIO TITLE "His Wife's Diary. Night" PERFORMER "Desyatnikov Leonid" INDEX 00 02:29:65FILE "17 His Wife's Diary. Night.wav" WAVE INDEX 01 00:00:00 TRACK 18 AUDIO TITLE "His Wife's Diary. The dog" PERFORMER "Desyatnikov Leonid" INDEX 00 02:00:17FILE "18 His Wife's Diary. The dog.wav" WAVE INDEX 01 00:00:00 TRACK 19 AUDIO TITLE "His Wife's Diary. Galya and Marga" PERFORMER "Desyatnikov Leonid" INDEX 00 01:16:70FILE "19 His Wife's Diary. Galya and Marga.wav" WAVE INDEX 01 00:00:00 TRACK 20 AUDIO TITLE "His Wife's Diary. Celebration" PERFORMER "Desyatnikov Leonid" INDEX 00 04:48:67FILE "20 His Wife's Diary. Celebration.wav" WAVE INDEX 01 00:00:00 TRACK 21 AUDIO TITLE "His Wife's Diary. The kiss" PERFORMER "Desyatnikov Leonid" INDEX 00 01:17:01FILE "21 His Wife's Diary. The kiss.wav" WAVE INDEX 01 00:00:00 TRACK 22 AUDIO TITLE "His Wife's Diary. Sonya and Bunin" PERFORMER "Desyatnikov Leonid" INDEX 00 02:34:42FILE "22 His Wife's Diary. Sonya and Bunin.wav" WAVE INDEX 01 00:00:00 TRACK 23 AUDIO TITLE "His Wife's Diary. Bunin's theme" PERFORMER "Desyatnikov Leonid" INDEX 00 00:45:40FILE "23 His Wife's Diary. Bunin's theme.wav" WAVE INDEX 01 00:00:00 TRACK 24 AUDIO TITLE "His Wife's Diary. Walsing an the ball" PERFORMER "Desyatnikov Leonid" INDEX 00 02:45:32FILE "24 His Wife's Diary. Walsing an the ball.wav" WAVE INDEX 01 00:00:00 TRACK 25 AUDIO TITLE "Giselle's Mania. Nocturne (bonus)" PERFORMER "Desyatnikov Leonid" INDEX 00 02:19:15FILE "25 Giselle's Mania. Nocturne (bonus).wav" WAVE INDEX 01 00:00:00
AUDIOCHECKER v2.0 beta (build 457) - by Dester - opdester@freemail.hu~~~~~~~~~~~~~~~~~~~~~~~~~~~~~~~~~~-=== НЕ РЕДАКТИРУЙТЕ ЭТОТ ФАЙЛ! ===-

Путь: ...\score

01 -=- 01 Giselle's Mania. Tuning.flac -=- CDDA (100%)02 -=- 02 Giselle's Mania. Prologue.flac -=- CDDA (100%)03 -=- 03 Giselle's Mania. Main theme.flac -=- CDDA (100%)04 -=- 04 Giselle's Mania. The dream of Volinski.flac -=- CDDA (100%)05 -=- 05 Giselle's Mania. After visiting the Asylum.flac -=- CDDA (43%)06 -=- 06 Giselle's Mania. The shooting continues.flac -=- CDDA (100%)07 -=- 07 Giselle's Mania. Lidochka Ivanova.flac -=- CDDA (100%)08 -=- 08 Giselle's Mania. The drawing.flac -=- CDDA (99%)09 -=- 09 Giselle's Mania. Lifar.flac -=- CDDA (100%)10 -=- 10 Giselle's Mania. Pastorale.flac -=- CDDA (100%)11 -=- 11 Giselle's Mania. Paris.flac -=- CDDA (100%)12 -=- 12 Giselle's Mania. Fainting.flac -=- CDDA (100%)13 -=- 13 Giselle's Mania. The final.flac -=- CDDA (100%)14 -=- 14 His Wife's Diary. Titles.flac -=- CDDA (99%)15 -=- 15 His Wife's Diary. Leaving.flac -=- CDDA (100%)16 -=- 16 His Wife's Diary. By the sea.flac -=- CDDA (100%)17 -=- 17 His Wife's Diary. Night.flac -=- CDDA (99%)18 -=- 18 His Wife's Diary. The dog.flac -=- CDDA (100%)19 -=- 19 His Wife's Diary. Galya and Marga.flac -=- CDDA (100%)20 -=- 20 His Wife's Diary. Celebration.flac -=- CDDA (100%)21 -=- 21 His Wife's Diary. The kiss.flac -=- CDDA (100%)22 -=- 22 His Wife's Diary. Sonya and Bunin.flac -=- CDDA (100%)23 -=- 23 His Wife's Diary. Bunin's theme.flac -=- CDDA (100%)24 -=- 24 His Wife's Diary. Walsing an the ball.flac -=- CDDA (100%)25 -=- 25 Giselle's Mania. Nocturne (bonus).flac -=- CDDA (100%)

Сводка 97,60% CDDA

70544548


Трекер:  [ 27-Ноя-2014 11:00 ]

  

Скачать .torrent

Размер .torrent файла 21 KB


Размер: 236 MB
Хэш (hash) релиза: 342348a12bbfab55c438c91ddc14287e11535e68

Торренты, похожие на Мания Жизели - Дневник его жены скачать торрент

Форум Название Автор Размер S L Добавлен
Саундтреки к фильмам и мультфильмам (mp3) ·· (Score) Мания Жизели / Дневник его жены (Музыка из фильмов А. Учителя) // Giselles Mania / His Wifes Diary (Soundtrack To Film Alexey Uchitel) (Леонид Десятников) - 2000, MP3 (tracks) 320 kbps Galfimbul 173193564165 MB 0 0 1417077441

11:37

27-Ноя-14

Еще никто не оставлял запись к записи скачать торрент Мания Жизели - Дневник его жены . Будь первым!

!Обратная связь