Скачать через торрент музыку Маленький принц бесплатно без регистрации torrent

Если у вас наблюдаются проблемы со скриншотами, переходом по ссылками, скачиванием торрентов - проблемы в блокировщике рекламы AdBlock. #хорошегоДня!


Статистика раздачи
Размер:  206 MB   |    Зарегистрирован:  3 года   |    .torrent скачан:  31 раз   |   
Раздают:  1  
   
Загрузка...
 
Автор Сообщение

Galfimbul

avatar Galfimbul


Николай Парфенюк – Маленький принц
(Символическая Сказка для взрослых)

Nikolay Parfeniouk – Little Prince
(The Conventional Tale For Grown People)

Название альбома: Маленький принц
Жанр: Score
Композитор: Николай Парфенюк
Год выпуска диска: 1993
Аудиокодек: FLAC (*.flac)
Тип рипа: tracks+.cue
Битрейт аудио: lossless
Продолжительность: 44:21
Источник: собственный рип
Наличие сканов в содержимом раздачи: да 300dpi
Треклист:

01. Сон о Розе (Маме) :: Dream Of Rose (To Mother)
02. Дом Детства :: Childhood House
03. Розовый Сад :: Pink Garden
04. Король* :: The King*
05. Король :: The King
06. Пьяница* :: Drunkard*
07. Пьяница :: Drunkard
08. Географ :: Geographer
09. Стрелочник :: Switchman
10. Честолюбец :: Ambitions Person
11. Пустыня :: Desert
12. Фонарщик :: Lamplighter
13. Тема :: Theme
14. Лис :: The Fox
15. Иллюстрация :: Illustration
16. Реквием :: Requiem

*В фильме не использованы
*Compositions not used in the film
Exact Audio Copy V1.0 beta 3 from 29. August 2011

EAC extraction logfile from 29. January 2014, 15:00

N. Parfeniouk / Little Prince

Used drive : PIONEER DVD-RW DVR-218L Adapter: 3 ID: 0

Read mode : SecureUtilize accurate stream : YesDefeat audio cache : YesMake use of C2 pointers : No

Read offset correction : 6Overread into Lead-In and Lead-Out : NoFill up missing offset samples with silence : YesDelete leading and trailing silent blocks : NoNull samples used in CRC calculations : YesUsed interface : Installed external ASPI interfaceGap handling : Appended to previous track

Used output format : User Defined EncoderSelected bitrate : 768 kBit/sQuality : HighAdd ID3 tag : NoCommand line compressor : C:\Program Files (x86)\Exact Audio Copy\FLAC\FLAC.EXEAdditional command line options : -8 -V -T "ARTIST=%artist%" -T "TITLE=%title%" -T "ALBUM=%albumtitle%" -T "DATE=%year%" -T "TRACKNUMBER=%tracknr%" -T "GENRE=%genre%" -T "COMMENT=%comment%" -T "BAND=%albuminterpret%" -T "ALBUMARTIST=%albuminterpret%" -T "COMPOSER=%composer%" %haslyrics%--tag-from-file=LYRICS="%lyricsfile%"%haslyrics% -T "DISCNUMBER=%cdnumber%" -T "TOTALDISCS=%totalcds%" -T "TOTALTRACKS=%numtracks%" %hascover%--picture="%coverfile%"%hascover% %source% -o %dest%

TOC of the extracted CD

Track | Start | Length | Start sector | End sector --------------------------------------------------------- 1 | 0:00.13 | 3:36.00 | 13 | 16212 2 | 3:36.13 | 1:39.00 | 16213 | 23637 3 | 5:15.13 | 1:44.25 | 23638 | 31462 4 | 6:59.38 | 3:56.27 | 31463 | 49189 5 | 10:55.65 | 2:00.48 | 49190 | 58237 6 | 12:56.38 | 1:49.00 | 58238 | 66412 7 | 14:45.38 | 1:15.50 | 66413 | 72087 8 | 16:01.13 | 1:16.50 | 72088 | 77837 9 | 17:17.63 | 4:18.00 | 77838 | 97187 10 | 21:35.63 | 2:00.57 | 97188 | 106244 11 | 23:36.45 | 3:00.43 | 106245 | 119787 12 | 26:37.13 | 3:33.25 | 119788 | 135787 13 | 30:10.38 | 0:51.50 | 135788 | 139662 14 | 31:02.13 | 6:00.50 | 139663 | 166712 15 | 37:02.63 | 3:09.62 | 166713 | 180949 16 | 40:12.50 | 4:08.63 | 180950 | 199612

Track 1

Filename D:\Music\_\N. Parfeniouk\1993 - Little Prince\01-Dream Of Rose (To Mother).wav

Pre-gap length 0:00:02.13

Peak level 54.8 % Extraction speed 1.0 X Track quality 100.0 % Test CRC 7CDFD3B4 Copy CRC 7CDFD3B4 Track not present in AccurateRip database Copy OK

Track 2

Filename D:\Music\_\N. Parfeniouk\1993 - Little Prince\02-Childhood House.wav

Pre-gap length 0:00:04.13

Peak level 60.0 % Extraction speed 0.9 X Track quality 100.0 % Test CRC 4647ECA3 Copy CRC 4647ECA3 Track not present in AccurateRip database Copy OK

Track 3

Filename D:\Music\_\N. Parfeniouk\1993 - Little Prince\03-Pink Garden.wav

Pre-gap length 0:00:02.50

Peak level 44.7 % Extraction speed 1.0 X Track quality 100.0 % Test CRC 38A22BCF Copy CRC 38A22BCF Track not present in AccurateRip database Copy OK

Track 4

Filename D:\Music\_\N. Parfeniouk\1993 - Little Prince\04-The King (1).wav

Pre-gap length 0:00:02.00

Peak level 55.1 % Extraction speed 1.1 X Track quality 99.9 % Test CRC 52F7798C Copy CRC 52F7798C Track not present in AccurateRip database Copy OK

Track 5

Filename D:\Music\_\N. Parfeniouk\1993 - Little Prince\05-The King (2).wav

Pre-gap length 0:00:00.02

Peak level 39.8 % Extraction speed 1.2 X Track quality 100.0 % Test CRC A21702B5 Copy CRC A21702B5 Track not present in AccurateRip database Copy OK

Track 6

Filename D:\Music\_\N. Parfeniouk\1993 - Little Prince\06-Drunkard (1).wav

Pre-gap length 0:00:02.00

Peak level 45.3 % Extraction speed 1.2 X Track quality 100.0 % Test CRC 845CD960 Copy CRC 845CD960 Track not present in AccurateRip database Copy OK

Track 7

Filename D:\Music\_\N. Parfeniouk\1993 - Little Prince\07-Drunkard (2).wav

Pre-gap length 0:00:03.00

Peak level 47.2 % Extraction speed 0.8 X Track quality 99.8 % Test CRC 356C5EAB Copy CRC 356C5EAB Track not present in AccurateRip database Copy OK

Track 8

Filename D:\Music\_\N. Parfeniouk\1993 - Little Prince\08-Geographer.wav

Pre-gap length 0:00:01.50

Peak level 48.1 % Extraction speed 0.8 X Track quality 99.8 % Test CRC 8C7C21F9 Copy CRC 8C7C21F9 Track not present in AccurateRip database Copy OK

Track 9

Filename D:\Music\_\N. Parfeniouk\1993 - Little Prince\09-Switchman.wav

Pre-gap length 0:00:03.25

Peak level 52.9 % Extraction speed 1.5 X Track quality 100.0 % Test CRC FB322A47 Copy CRC FB322A47 Track not present in AccurateRip database Copy OK

Track 10

Filename D:\Music\_\N. Parfeniouk\1993 - Little Prince\10-Ambitions Person.wav

Pre-gap length 0:00:03.25

Peak level 45.6 % Extraction speed 1.4 X Track quality 100.0 % Test CRC 6E098C8D Copy CRC 6E098C8D Track not present in AccurateRip database Copy OK

Track 11

Filename D:\Music\_\N. Parfeniouk\1993 - Little Prince\11-Desert.wav

Pre-gap length 0:00:03.57

Peak level 43.8 % Extraction speed 1.3 X Track quality 99.9 % Test CRC 6D7803F8 Copy CRC 6D7803F8 Track not present in AccurateRip database Copy OK

Track 12

Filename D:\Music\_\N. Parfeniouk\1993 - Little Prince\12-Lamplighter.wav

Pre-gap length 0:00:02.25

Peak level 31.7 % Extraction speed 1.7 X Track quality 100.0 % Test CRC A538ED46 Copy CRC A538ED46 Track not present in AccurateRip database Copy OK

Track 13

Filename D:\Music\_\N. Parfeniouk\1993 - Little Prince\13-Theme.wav

Pre-gap length 0:00:02.25

Peak level 35.4 % Extraction speed 1.1 X Track quality 100.0 % Test CRC BF8070CF Copy CRC BF8070CF Track not present in AccurateRip database Copy OK

Track 14

Filename D:\Music\_\N. Parfeniouk\1993 - Little Prince\14-The Fox.wav

Pre-gap length 0:00:01.50

Peak level 56.7 % Extraction speed 1.9 X Track quality 100.0 % Test CRC 2492DC3B Copy CRC 2492DC3B Track not present in AccurateRip database Copy OK

Track 15

Filename D:\Music\_\N. Parfeniouk\1993 - Little Prince\15-Illustration.wav

Pre-gap length 0:00:03.50

Peak level 51.7 % Extraction speed 1.8 X Track quality 100.0 % Test CRC 8959FF1D Copy CRC 8959FF1D Track not present in AccurateRip database Copy OK

Track 16

Filename D:\Music\_\N. Parfeniouk\1993 - Little Prince\16-Requiem.wav

Pre-gap length 0:00:05.37

Peak level 46.8 % Extraction speed 2.0 X Track quality 100.0 % Test CRC 21321BD4 Copy CRC 21321BD4 Track not present in AccurateRip database Copy OK

None of the tracks are present in the AccurateRip database

No errors occurred

End of status report

==== Log checksum D9CFF06695A1095D3051063286DF3F0832BDAAE0A1E69D6A1F95BBDEBF0EE4A4 ====
REM GENRE SoundtrackREM DATE 1993REM DISCID EA0A6510REM COMMENT "ExactAudioCopy v1.0b3"PERFORMER "N. Parfeniouk"TITLE "Little Prince"FILE "01-Dream Of Rose (To Mother).flac" WAVE TRACK 01 AUDIO TITLE "Dream Of Rose (To Mother)" PERFORMER "N. Parfeniouk" PREGAP 00:00:13 INDEX 01 00:00:00 TRACK 02 AUDIO TITLE "Childhood House" PERFORMER "N. Parfeniouk" INDEX 00 03:31:62FILE "02-Childhood House.flac" WAVE INDEX 01 00:00:00 TRACK 03 AUDIO TITLE "Pink Garden" PERFORMER "N. Parfeniouk" INDEX 00 01:36:25FILE "03-Pink Garden.flac" WAVE INDEX 01 00:00:00 TRACK 04 AUDIO TITLE "The King (1)" PERFORMER "N. Parfeniouk" INDEX 00 01:42:25FILE "04-The King (1).flac" WAVE INDEX 01 00:00:00 TRACK 05 AUDIO TITLE "The King (2)" PERFORMER "N. Parfeniouk" INDEX 00 03:56:25FILE "05-The King (2).flac" WAVE INDEX 01 00:00:00 TRACK 06 AUDIO TITLE "Drunkard (1)" PERFORMER "N. Parfeniouk" INDEX 00 01:58:48FILE "06-Drunkard (1).flac" WAVE INDEX 01 00:00:00 TRACK 07 AUDIO TITLE "Drunkard (2)" PERFORMER "N. Parfeniouk" INDEX 00 01:46:00FILE "07-Drunkard (2).flac" WAVE INDEX 01 00:00:00 TRACK 08 AUDIO TITLE "Geographer" PERFORMER "N. Parfeniouk" INDEX 00 01:14:00FILE "08-Geographer.flac" WAVE INDEX 01 00:00:00 TRACK 09 AUDIO TITLE "Switchman" PERFORMER "N. Parfeniouk" INDEX 00 01:13:25FILE "09-Switchman.flac" WAVE INDEX 01 00:00:00 TRACK 10 AUDIO TITLE "Ambitions Person" PERFORMER "N. Parfeniouk" INDEX 00 04:14:50FILE "10-Ambitions Person.flac" WAVE INDEX 01 00:00:00 TRACK 11 AUDIO TITLE "Desert" PERFORMER "N. Parfeniouk" INDEX 00 01:57:00FILE "11-Desert.flac" WAVE INDEX 01 00:00:00 TRACK 12 AUDIO TITLE "Lamplighter" PERFORMER "N. Parfeniouk" INDEX 00 02:58:18FILE "12-Lamplighter.flac" WAVE INDEX 01 00:00:00 TRACK 13 AUDIO TITLE "Theme" PERFORMER "N. Parfeniouk" INDEX 00 03:31:00FILE "13-Theme.flac" WAVE INDEX 01 00:00:00 TRACK 14 AUDIO TITLE "The Fox" PERFORMER "N. Parfeniouk" INDEX 00 00:50:00FILE "14-The Fox.flac" WAVE INDEX 01 00:00:00 TRACK 15 AUDIO TITLE "Illustration" PERFORMER "N. Parfeniouk" INDEX 00 05:57:00FILE "15-Illustration.flac" WAVE INDEX 01 00:00:00 TRACK 16 AUDIO TITLE "Requiem" PERFORMER "N. Parfeniouk" INDEX 00 03:04:25FILE "16-Requiem.flac" WAVE INDEX 01 00:00:00
Раздача этого альбома в mp3: [url=...4654511](Score) Маленький принц (Николай Парфенюк) - 1993, MP3, 320 kbps[/url]

Трекер:  [ 27-Ноя-2014 11:00 ]

  

Скачать .torrent

Размер .torrent файла 18 KB


Размер: 206 MB
Хэш (hash) релиза: 693390fe1ca9be81fe31757bbb25d56f089bb753

Торренты, похожие на Маленький принц скачать торрент

Форум Название Автор Размер S L Добавлен
Саундтреки к фильмам и мультфильмам (mp3) ·· (Score / MF) Маленький принц / Le Petit Prince / The Little Prince (by Hans Zimmer & Richard Harvey) - 2015, MP3 (tracks) 320 kbps Galfimbul 215196896205 MB 2 0 1456663501

15:45

28-Фев-16

Саундтреки к фильмам и мультфильмам (lossless) ·· (Score / Soundtrack / Cartoon) Маленький принц / Le Petit Prince / The Little Prince (by Hans Zimmer & Richard Harvey) - 2015, FLAC (tracks+.cue), lossless Galfimbul 382466085365 MB 0 0 1456657566

14:06

28-Фев-16

Саундтреки к фильмам и мультфильмам (lossless) ·· (Score) Маленький принц / Le Petit Prince (The Little Prince) (Hans Zimmer, Richard Harvey) avec Camille - 2015, FLAC (tracks), lossless Galfimbul 335536452320 MB 0 0 1440922950

11:22

30-Авг-15

Саундтреки к фильмам и мультфильмам (mp3) ·· (Score/MF) Маленький принц / Le Petit Prince (The Little Prince) (Hans Zimmer, Richard Harvey) avec Camille - 2015, MP3, 320 kbps Galfimbul 162760745155 MB 0 0 1438497408

09:36

2-Авг-15

Саундтреки к фильмам и мультфильмам (mp3) ·· (Score) Маленький принц (Николай Парфенюк) - 1993, MP3, 320 kbps Galfimbul 108210226103 MB 0 0 1417077474

11:37

27-Ноя-14

Еще никто не оставлял запись к записи скачать торрент Маленький принц . Будь первым!

!Обратная связь