Скачать через торрент музыку Фантомас бесплатно без регистрации torrent

Если у вас наблюдаются проблемы со скриншотами, переходом по ссылками, скачиванием торрентов - проблемы в блокировщике рекламы AdBlock. #хорошегоДня!


Статистика раздачи
Размер:  462 MB   |    Зарегистрирован:  3 года   |    .torrent скачан:  47 раз   |   
Раздают:  1  
   
Загрузка...
 
Автор Сообщение

Galfimbul

avatar Galfimbul


Фантомас (Трилогия) | Fantomas (Trilogie)

Жанр: Score
Композитор: Michel Magne
Год выпуска диска: 2001
Год выпуска фильма: 1964,65,66
Страна-производитель диска: EU
Издатель (лейбл): Universal Music S.A. France
Номер по каталогу: 013 476-2
Аудиокодек: FLAC (*.flac)
Тип рипа: tracks+.cue
Битрейт аудио: lossless
Продолжительность: 01:00:27
Источник: собственный рип
Наличие сканов в содержимом раздачи: да
1. Thème de Fantômas (01:36) *
2. Fantômas s'échappe (01:28) *
3. Ma chère Hélène (03:12) **
4. Fandor au cimitière (02:07) *
5. Juve s'explique (02:00) **
6. Fantômas aux grandes orgues (01:31) *
7. Une DS dans le ciel (01:26) ***
8. Roma (01:43) **
9. Fantômas se dechaîne (01:32) **
10. Fantômas contre Scotland Yard (02:18) ***
11. Un pendu dans la chambre (01:37) ***
12. Ma chère Hélène (version 2) (02:50) **
13. Lord Mac Rashley (02:08) ***
14. Où est le bien ? Où est le mal ? (01:47) **
15. Opération Artaban (02:12) ***
16. Le lit (00:59) ***
17. Mystère dans les douves (02:45) ***
18. Farandole Interpol (01:35) **
19. Une ombre dans la nuit (01:20) **
20. Fantômas flirte (02:28) **
21. Bienvenue chez Fantômas (01:57) *
22. Fandor se dechaîne (02:35) **
23. L'ultime évasion (02:28) ***
TITRES BONUS:
24. Ma chère Hélène (version piano) (03:20) ** - soliste: Raymond Alessandrini
25. Thème de Fantômas (version grandes orgues) (01:28)
26. Suite Fantômas (06:01) - arrangement et direction: Raymond Alessandrini
27. Fantômas se Remixe (04:04) - produit et remixé par Nicolas Errèra

* Extrait de Fantomas (1964)
** Extrait de Fantomas se Dechaine (1965)
*** Extrait de Fantomas contre Scotland Yard (1966)
Exact Audio Copy V1.0 beta 3 from 29. August 2011

EAC extraction logfile from 27. November 2014, 10:46

Michel Magne / Fantomas

Used drive : PLEXTOR DVDR PX-L890SA Adapter: 0 ID: 1

Read mode : SecureUtilize accurate stream : YesDefeat audio cache : YesMake use of C2 pointers : No

Read offset correction : 6Overread into Lead-In and Lead-Out : NoFill up missing offset samples with silence : YesDelete leading and trailing silent blocks : NoNull samples used in CRC calculations : YesUsed interface : Native Win32 interface for Win NT & 2000Gap handling : Appended to previous track

Used output format : User Defined EncoderSelected bitrate : 768 kBit/sQuality : HighAdd ID3 tag : NoCommand line compressor : C:\Program Files\Exact Audio Copy\FLAC\FLAC.EXEAdditional command line options : -V -8 -T "Genre=%genre%" -T "Artist=%artist%" -T "Title=%title%" -T "Album=%albumtitle%" -T "Date=%year%" -T "Tracknumber=%tracknr%" -T "Comment=%comment%" %source%

TOC of the extracted CD

Track | Start | Length | Start sector | End sector --------------------------------------------------------- 1 | 0:00.00 | 1:37.61 | 0 | 7335 2 | 1:37.61 | 1:29.00 | 7336 | 14010 3 | 3:06.61 | 3:15.08 | 14011 | 28643 4 | 6:21.69 | 2:09.00 | 28644 | 38318 5 | 8:30.69 | 2:02.14 | 38319 | 47482 6 | 10:33.08 | 1:34.62 | 47483 | 54594 7 | 12:07.70 | 1:28.08 | 54595 | 61202 8 | 13:36.03 | 1:46.59 | 61203 | 69211 9 | 15:22.62 | 1:34.70 | 69212 | 76331 10 | 16:57.57 | 2:21.51 | 76332 | 86957 11 | 19:19.33 | 1:40.57 | 86958 | 94514 12 | 21:00.15 | 2:52.73 | 94515 | 107487 13 | 23:53.13 | 2:10.10 | 107488 | 117247 14 | 26:03.23 | 1:48.61 | 117248 | 125408 15 | 27:52.09 | 2:14.07 | 125409 | 135465 16 | 30:06.16 | 1:02.15 | 135466 | 140130 17 | 31:08.31 | 2:48.02 | 140131 | 152732 18 | 33:56.33 | 1:37.23 | 152733 | 160030 19 | 35:33.56 | 1:23.07 | 160031 | 166262 20 | 36:56.63 | 2:31.63 | 166263 | 177650 21 | 39:28.51 | 1:59.73 | 177651 | 186648 22 | 41:28.49 | 2:37.29 | 186649 | 198452 23 | 44:06.03 | 2:31.02 | 198453 | 209779 24 | 46:37.05 | 3:23.00 | 209780 | 225004 25 | 50:00.05 | 1:28.53 | 225005 | 231657 26 | 51:28.58 | 6:02.01 | 231658 | 258808 27 | 57:30.59 | 4:05.32 | 258809 | 277215

Track 1

Filename F:\torrent\Fantomas_Michel Magne\score\01 Theme de Fantomas.wav

Pre-gap length 0:00:02.00

Peak level 87.6 % Extraction speed 4.1 X Track quality 100.0 % Test CRC 35135D7F Copy CRC 35135D7F Cannot be verified as accurate (confidence 8) [B6B631A4], AccurateRip returned [51463769] (AR v2) Copy OK

Track 2

Filename F:\torrent\Fantomas_Michel Magne\score\02 Fantomas s'echappe.wav

Pre-gap length 0:00:00.45

Peak level 87.4 % Extraction speed 4.1 X Track quality 100.0 % Test CRC C36C3FD5 Copy CRC C36C3FD5 Cannot be verified as accurate (confidence 8) [22D7F6E6], AccurateRip returned [E6106172] (AR v2) Copy OK

Track 3

Filename F:\torrent\Fantomas_Michel Magne\score\03 Ma Chere Helene.wav

Pre-gap length 0:00:00.45

Peak level 59.6 % Extraction speed 5.3 X Track quality 100.0 % Test CRC 04AB9CB6 Copy CRC 04AB9CB6 Cannot be verified as accurate (confidence 8) [5F552D76], AccurateRip returned [D2DB5BAD] (AR v2) Copy OK

Track 4

Filename F:\torrent\Fantomas_Michel Magne\score\04 Fandor au Cimetiere.wav

Pre-gap length 0:00:01.45

Peak level 92.7 % Extraction speed 5.2 X Track quality 100.0 % Test CRC EF433933 Copy CRC EF433933 Cannot be verified as accurate (confidence 8) [20DC1A48], AccurateRip returned [5598938B] (AR v2) Copy OK

Track 5

Filename F:\torrent\Fantomas_Michel Magne\score\05 Juve s'explique.wav

Pre-gap length 0:00:01.45

Peak level 85.3 % Extraction speed 4.4 X Track quality 99.9 % Test CRC D44BE7F4 Copy CRC D44BE7F4 Cannot be verified as accurate (confidence 8) [BC06719C], AccurateRip returned [ECB781CA] (AR v2) Copy OK

Track 6

Filename F:\torrent\Fantomas_Michel Magne\score\06 Fantomas aux grandes orgues.wav

Pre-gap length 0:00:01.45

Peak level 88.6 % Extraction speed 5.2 X Track quality 100.0 % Test CRC F8EDAA51 Copy CRC F8EDAA51 Cannot be verified as accurate (confidence 8) [06CEA635], AccurateRip returned [1F9EE402] (AR v2) Copy OK

Track 7

Filename F:\torrent\Fantomas_Michel Magne\score\07 Une DS dans le ciel.wav

Pre-gap length 0:00:02.45

Peak level 88.8 % Extraction speed 5.2 X Track quality 100.0 % Test CRC F6BAE09C Copy CRC F6BAE09C Cannot be verified as accurate (confidence 8) [283D21AE], AccurateRip returned [D934A8B3] (AR v2) Copy OK

Track 8

Filename F:\torrent\Fantomas_Michel Magne\score\08 Rome.wav

Pre-gap length 0:00:01.45

Peak level 87.9 % Extraction speed 5.6 X Track quality 100.0 % Test CRC 99804113 Copy CRC 99804113 Cannot be verified as accurate (confidence 8) [8AF26D59], AccurateRip returned [32622B2D] (AR v2) Copy OK

Track 9

Filename F:\torrent\Fantomas_Michel Magne\score\09 Fantomas se dechaine (generique).wav

Pre-gap length 0:00:02.45

Peak level 81.0 % Extraction speed 4.4 X Track quality 99.8 % Test CRC BC59B98D Copy CRC BC59B98D Cannot be verified as accurate (confidence 8) [B811AB0B], AccurateRip returned [35AA36AB] (AR v2) Copy OK

Track 10

Filename F:\torrent\Fantomas_Michel Magne\score\10 Fantomas contre Scotland Yard (generique).wav

Pre-gap length 0:00:01.45

Peak level 86.4 % Extraction speed 6.5 X Track quality 100.0 % Test CRC E910528F Copy CRC E910528F Cannot be verified as accurate (confidence 8) [D978C4BE], AccurateRip returned [43E8832E] (AR v2) Copy OK

Track 11

Filename F:\torrent\Fantomas_Michel Magne\score\11 Un pendu dans la chambre.wav

Pre-gap length 0:00:02.45

Peak level 84.7 % Extraction speed 6.1 X Track quality 100.0 % Test CRC 4E375A96 Copy CRC 4E375A96 Cannot be verified as accurate (confidence 8) [B8C08D29], AccurateRip returned [371EA1FA] (AR v2) Copy OK

Track 12

Filename F:\torrent\Fantomas_Michel Magne\score\12 Ma Chere Helene (version 2).wav

Pre-gap length 0:00:02.45

Peak level 89.8 % Extraction speed 6.1 X Track quality 99.9 % Test CRC 664C7ACD Copy CRC 664C7ACD Cannot be verified as accurate (confidence 7) [6C1BA029], AccurateRip returned [E93FE087] (AR v2) Copy OK

Track 13

Filename F:\torrent\Fantomas_Michel Magne\score\13 Lord Mac Rashley.wav

Pre-gap length 0:00:02.45

Peak level 87.7 % Extraction speed 5.6 X Track quality 99.9 % Test CRC EA471DBC Copy CRC EA471DBC Cannot be verified as accurate (confidence 8) [73548666], AccurateRip returned [827DBCCB] (AR v2) Copy OK

Track 14

Filename F:\torrent\Fantomas_Michel Magne\score\14 Ou est le bien Ou est le mal.wav

Pre-gap length 0:00:01.45

Peak level 88.2 % Extraction speed 6.7 X Track quality 100.0 % Test CRC C474AED1 Copy CRC C474AED1 Cannot be verified as accurate (confidence 8) [0CB94FF0], AccurateRip returned [7975A796] (AR v2) Copy OK

Track 15

Filename F:\torrent\Fantomas_Michel Magne\score\15 Operation Artaban.wav

Pre-gap length 0:00:01.44

Peak level 89.7 % Extraction speed 5.9 X Track quality 99.9 % Test CRC 3DC0A7C9 Copy CRC 3DC0A7C9 Cannot be verified as accurate (confidence 8) [16B48E60], AccurateRip returned [D18F05F0] (AR v2) Copy OK

Track 16

Filename F:\torrent\Fantomas_Michel Magne\score\16 Le lit.wav

Pre-gap length 0:00:01.45

Peak level 87.2 % Extraction speed 5.8 X Track quality 100.0 % Test CRC B4A2C7BB Copy CRC B4A2C7BB Cannot be verified as accurate (confidence 8) [9443EFC4], AccurateRip returned [5FBBE4CA] (AR v2) Copy OK

Track 17

Filename F:\torrent\Fantomas_Michel Magne\score\17 Mystere dans les douves.wav

Pre-gap length 0:00:02.45

Peak level 88.4 % Extraction speed 7.8 X Track quality 100.0 % Test CRC 3FEACBF5 Copy CRC 3FEACBF5 Cannot be verified as accurate (confidence 8) [FBFD8FF4], AccurateRip returned [EB28FC72] (AR v2) Copy OK

Track 18

Filename F:\torrent\Fantomas_Michel Magne\score\18 Farandole Interpol.wav

Pre-gap length 0:00:01.45

Peak level 83.5 % Extraction speed 6.9 X Track quality 100.0 % Test CRC 25D4C0C0 Copy CRC 25D4C0C0 Cannot be verified as accurate (confidence 8) [A2AA6DEA], AccurateRip returned [5BDD432B] (AR v2) Copy OK

Track 19

Filename F:\torrent\Fantomas_Michel Magne\score\19 Une ombre dans la nuit.wav

Pre-gap length 0:00:01.45

Peak level 90.9 % Extraction speed 6.8 X Track quality 100.0 % Test CRC 84B40077 Copy CRC 84B40077 Cannot be verified as accurate (confidence 8) [2683A7F8], AccurateRip returned [95BD8B20] (AR v2) Copy OK

Track 20

Filename F:\torrent\Fantomas_Michel Magne\score\20 Fantomas flirte.wav

Pre-gap length 0:00:02.45

Peak level 89.7 % Extraction speed 8.1 X Track quality 100.0 % Test CRC BBD0E51D Copy CRC BBD0E51D Cannot be verified as accurate (confidence 8) [6E0C0EA3], AccurateRip returned [CC6710C6] (AR v2) Copy OK

Track 21

Filename F:\torrent\Fantomas_Michel Magne\score\21 Bievenue chez Fantomas.wav

Pre-gap length 0:00:02.45

Peak level 87.6 % Extraction speed 7.8 X Track quality 100.0 % Test CRC BEC4CA17 Copy CRC BEC4CA17 Cannot be verified as accurate (confidence 8) [BBAF99DF], AccurateRip returned [B93DC0AC] (AR v2) Copy OK

Track 22

Filename F:\torrent\Fantomas_Michel Magne\score\22 Fandor se dechaine.wav

Pre-gap length 0:00:01.45

Peak level 80.1 % Extraction speed 7.1 X Track quality 99.9 % Test CRC A4E4D428 Copy CRC A4E4D428 Cannot be verified as accurate (confidence 8) [40AA0134], AccurateRip returned [15CFB27D] (AR v2) Copy OK

Track 23

Filename F:\torrent\Fantomas_Michel Magne\score\23 L'ultime evasion.wav

Pre-gap length 0:00:01.45

Peak level 93.0 % Extraction speed 7.2 X Track quality 99.9 % Test CRC 055E4501 Copy CRC 055E4501 Cannot be verified as accurate (confidence 8) [15B47BDB], AccurateRip returned [D8C8A6D4] (AR v2) Copy OK

Track 24

Filename F:\torrent\Fantomas_Michel Magne\score\24 Ma Chere Helene (2).wav

Pre-gap length 0:00:02.45

Peak level 84.3 % Extraction speed 9.1 X Track quality 100.0 % Test CRC FC641CA8 Copy CRC FC641CA8 Cannot be verified as accurate (confidence 8) [FEB715BA], AccurateRip returned [E8E84C73] (AR v2) Copy OK

Track 25

Filename F:\torrent\Fantomas_Michel Magne\score\25 Theme de Fantomas (version grandes orgues).wav

Pre-gap length 0:00:01.45

Peak level 74.0 % Extraction speed 7.8 X Track quality 100.0 % Test CRC 5EACD785 Copy CRC 5EACD785 Cannot be verified as accurate (confidence 8) [73F44F9C], AccurateRip returned [31864F47] (AR v2) Copy OK

Track 26

Filename F:\torrent\Fantomas_Michel Magne\score\26 Suite Fantomas.wav

Pre-gap length 0:00:00.45

Peak level 92.2 % Extraction speed 10.2 X Track quality 100.0 % Test CRC 0E14C7A9 Copy CRC 0E14C7A9 Cannot be verified as accurate (confidence 8) [C5716DC8], AccurateRip returned [7B54DB95] (AR v2) Copy OK

Track 27

Filename F:\torrent\Fantomas_Michel Magne\score\27 Fantomas se Remixe.wav

Pre-gap length 0:00:00.45

Peak level 71.2 % Extraction speed 10.1 X Track quality 100.0 % Test CRC C56CC4A0 Copy CRC C56CC4A0 Cannot be verified as accurate (confidence 8) [D2E5A2C0], AccurateRip returned [C2C37072] (AR v2) Copy OK

No tracks could be verified as accurateYou may have a different pressing from the one(s) in the database

No errors occurred

End of status report

==== Log checksum 0361B47CDA60428C0C06E0B5E23AA8DFE82178A3841F7CB0C43555E8BF42D210 ====
REM GENRE SoundtrackREM DATE 2001REM DISCID 7A0E701BREM COMMENT "ExactAudioCopy v1.0b3"CATALOG 0000000000000PERFORMER "Michel Magne"TITLE "Fantomas"FILE "01 Theme de Fantomas.wav" WAVE TRACK 01 AUDIO TITLE "Theme de Fantomas" PERFORMER "Michel Magne" FLAGS DCP INDEX 01 00:00:00 TRACK 02 AUDIO TITLE "Fantomas s'echappe" PERFORMER "Michel Magne" FLAGS DCP INDEX 00 01:37:16FILE "02 Fantomas s'echappe.wav" WAVE INDEX 01 00:00:00 TRACK 03 AUDIO TITLE "Ma Chere Helene" PERFORMER "Michel Magne" FLAGS DCP INDEX 00 01:28:30FILE "03 Ma Chere Helene.wav" WAVE INDEX 01 00:00:00 TRACK 04 AUDIO TITLE "Fandor au Cimetiere" PERFORMER "Michel Magne" FLAGS DCP INDEX 00 03:13:38FILE "04 Fandor au Cimetiere.wav" WAVE INDEX 01 00:00:00 TRACK 05 AUDIO TITLE "Juve s'explique" PERFORMER "Michel Magne" FLAGS DCP INDEX 00 02:07:30FILE "05 Juve s'explique.wav" WAVE INDEX 01 00:00:00 TRACK 06 AUDIO TITLE "Fantomas aux grandes orgues" PERFORMER "Michel Magne" FLAGS DCP INDEX 00 02:00:44FILE "06 Fantomas aux grandes orgues.wav" WAVE INDEX 01 00:00:00 TRACK 07 AUDIO TITLE "Une DS dans le ciel" PERFORMER "Michel Magne" FLAGS DCP INDEX 00 01:32:17FILE "07 Une DS dans le ciel.wav" WAVE INDEX 01 00:00:00 TRACK 08 AUDIO TITLE "Rome" PERFORMER "Michel Magne" FLAGS DCP INDEX 00 01:26:38FILE "08 Rome.wav" WAVE INDEX 01 00:00:00 TRACK 09 AUDIO TITLE "Fantomas se dechaine (generique)" PERFORMER "Michel Magne" FLAGS DCP INDEX 00 01:44:14FILE "09 Fantomas se dechaine (generique).wav" WAVE INDEX 01 00:00:00 TRACK 10 AUDIO TITLE "Fantomas contre Scotland Yard (generique)" PERFORMER "Michel Magne" FLAGS DCP INDEX 00 01:33:25FILE "10 Fantomas contre Scotland Yard (generique).wav" WAVE INDEX 01 00:00:00 TRACK 11 AUDIO TITLE "Un pendu dans la chambre" PERFORMER "Michel Magne" FLAGS DCP INDEX 00 02:19:06FILE "11 Un pendu dans la chambre.wav" WAVE INDEX 01 00:00:00 TRACK 12 AUDIO TITLE "Ma Chere Helene (version 2)" PERFORMER "Michel Magne" FLAGS DCP INDEX 00 01:38:12FILE "12 Ma Chere Helene (version 2).wav" WAVE INDEX 01 00:00:00 TRACK 13 AUDIO TITLE "Lord Mac Rashley" PERFORMER "Michel Magne" FLAGS DCP INDEX 00 02:50:28FILE "13 Lord Mac Rashley.wav" WAVE INDEX 01 00:00:00 TRACK 14 AUDIO TITLE "Ou est le bien ? Ou est le mal ?" PERFORMER "Michel Magne" FLAGS DCP INDEX 00 02:08:40FILE "14 Ou est le bien Ou est le mal.wav" WAVE INDEX 01 00:00:00 TRACK 15 AUDIO TITLE "Operation Artaban" PERFORMER "Michel Magne" FLAGS DCP INDEX 00 01:47:17FILE "15 Operation Artaban.wav" WAVE INDEX 01 00:00:00 TRACK 16 AUDIO TITLE "Le lit" PERFORMER "Michel Magne" FLAGS DCP INDEX 00 02:12:37FILE "16 Le lit.wav" WAVE INDEX 01 00:00:00 TRACK 17 AUDIO TITLE "Mystere dans les douves" PERFORMER "Michel Magne" FLAGS DCP INDEX 00 00:59:45FILE "17 Mystere dans les douves.wav" WAVE INDEX 01 00:00:00 TRACK 18 AUDIO TITLE "Farandole Interpol" PERFORMER "Michel Magne" FLAGS DCP INDEX 00 02:46:32FILE "18 Farandole Interpol.wav" WAVE INDEX 01 00:00:00 TRACK 19 AUDIO TITLE "Une ombre dans la nuit" PERFORMER "Michel Magne" FLAGS DCP INDEX 00 01:35:53FILE "19 Une ombre dans la nuit.wav" WAVE INDEX 01 00:00:00 TRACK 20 AUDIO TITLE "Fantomas flirte" PERFORMER "Michel Magne" FLAGS DCP INDEX 00 01:20:37FILE "20 Fantomas flirte.wav" WAVE INDEX 01 00:00:00 TRACK 21 AUDIO TITLE "Bievenue chez Fantomas" PERFORMER "Michel Magne" FLAGS DCP INDEX 00 02:29:18FILE "21 Bievenue chez Fantomas.wav" WAVE INDEX 01 00:00:00 TRACK 22 AUDIO TITLE "Fandor se dechaine" PERFORMER "Michel Magne" FLAGS DCP INDEX 00 01:58:28FILE "22 Fandor se dechaine.wav" WAVE INDEX 01 00:00:00 TRACK 23 AUDIO TITLE "L'ultime evasion" PERFORMER "Michel Magne" FLAGS DCP INDEX 00 02:35:59FILE "23 L'ultime evasion.wav" WAVE INDEX 01 00:00:00 TRACK 24 AUDIO TITLE "Ma Chere Helene (2)" PERFORMER "Michel Magne" FLAGS DCP INDEX 00 02:28:32FILE "24 Ma Chere Helene (2).wav" WAVE INDEX 01 00:00:00 TRACK 25 AUDIO TITLE "Theme de Fantomas (version grandes orgues)" PERFORMER "Michel Magne" FLAGS DCP INDEX 00 03:21:30FILE "25 Theme de Fantomas (version grandes orgues).wav" WAVE INDEX 01 00:00:00 TRACK 26 AUDIO TITLE "Suite Fantomas" PERFORMER "Michel Magne" FLAGS DCP INDEX 00 01:28:08FILE "26 Suite Fantomas.wav" WAVE INDEX 01 00:00:00 TRACK 27 AUDIO TITLE "Fantomas se Remixe" PERFORMER "Michel Magne" FLAGS DCP INDEX 00 06:01:31FILE "27 Fantomas se Remixe.wav" WAVE INDEX 01 00:00:00
AUDIOCHECKER v2.0 beta (build 457) - by Dester - opdester@freemail.hu~~~~~~~~~~~~~~~~~~~~~~~~~~~~~~~~~~-=== DO NOT EDIT THIS FILE! ===-

Path: ...\score

01 -=- 01 Theme de Fantomas.flac -=- MPEG (95%)02 -=- 02 Fantomas s'echappe.flac -=- CDDA (100%)03 -=- 03 Ma Chere Helene.flac -=- CDDA (100%)04 -=- 04 Fandor au Cimetiere.flac -=- CDDA (92%)05 -=- 05 Juve s'explique.flac -=- CDDA (100%)06 -=- 06 Fantomas aux grandes orgues.flac -=- CDDA (58%)07 -=- 07 Une DS dans le ciel.flac -=- CDDA (100%)08 -=- 08 Rome.flac -=- CDDA (100%)09 -=- 09 Fantomas se dechaine (generique).flac -=- CDDA (100%)10 -=- 10 Fantomas contre Scotland Yard (generique).flac -=- CDDA (49%)11 -=- 11 Un pendu dans la chambre.flac -=- CDDA (99%)12 -=- 12 Ma Chere Helene (version 2).flac -=- CDDA (99%)13 -=- 13 Lord Mac Rashley.flac -=- CDDA (100%)14 -=- 14 Ou est le bien Ou est le mal.flac -=- CDDA (100%)15 -=- 15 Operation Artaban.flac -=- CDDA (99%)16 -=- 16 Le lit.flac -=- CDDA (100%)17 -=- 17 Mystere dans les douves.flac -=- CDDA (100%)18 -=- 18 Farandole Interpol.flac -=- CDDA (100%)19 -=- 19 Une ombre dans la nuit.flac -=- CDDA (100%)20 -=- 20 Fantomas flirte.flac -=- CDDA (100%)21 -=- 21 Bievenue chez Fantomas.flac -=- CDDA (100%)22 -=- 22 Fandor se dechaine.flac -=- CDDA (99%)23 -=- 23 L'ultime evasion.flac -=- CDDA (99%)24 -=- 24 Ma Chere Helene (2).flac -=- CDDA (100%)25 -=- 25 Theme de Fantomas (version grandes orgues).flac -=- CDDA (87%)26 -=- 26 Suite Fantomas.flac -=- CDDA (100%)27 -=- 27 Fantomas se Remixe.flac -=- CDDA (100%)

Summary 92,07% CDDA

156112580


Трекер:  [ 27-Ноя-2014 13:30 ]

  

Скачать .torrent

Размер .torrent файла 21 KB


Размер: 462 MB
Хэш (hash) релиза: 195d9b20107eb8144af5b4218f4e7c24a883b154

Еще никто не оставлял запись к записи скачать торрент Фантомас . Будь первым!

!Обратная связь