Скачать через торрент музыку Возвращение черного скакуна The Black Stallion Returns бесплатно без регистрации torrent

Если у вас наблюдаются проблемы со скриншотами, переходом по ссылками, скачиванием торрентов - проблемы в блокировщике рекламы AdBlock. #хорошегоДня!


Статистика раздачи
Размер:  409 MB   |    Зарегистрирован:  3 года   |    .torrent скачан:  33 раза   |   
Раздают:  1  
   
Загрузка...
 
Автор Сообщение

Galfimbul

avatar Galfimbul



Возвращение черного скакуна / The Black Stallion Returns
Composed and Conducted by Georges Delerue
Limited Edition of 1500 Copies

Жанр: Score | Дата выпуска: 7 декабря 2009
Издатель (лейбл): Intrada | Номер по каталогу: ISC 117
Аудиокодек: FLAC | Тип рипа: image+.cue | Битрейт аудио: lossless
Общая продолжительность: 79:12
Источник: Рип оригинального диска из личной коллекции
** Complete Film Score **
01. Prologue And Main Title [3:12]
02. Barn Fire [2:06]
03. Escape From Truck [1:56]
04. By The Docks [1:29]
05. Clipper Take-Off [1:13]
06. Meslar Approaches [1:24]
07. Uruk Gunfire [2:53]
08. Meslar's Battle And Death [3:00]
09. Thirsty Trek [3:24]
10. Raj's People Approach [2:01]
11. Meet Sagr [1:31]
12. Reunion [4:15]
13. Easy Boy [0:36]
14. Uruk Attack [1:07]
15. Escape From Uruks [2:11]
16. Scarface Push [1:07]
17. Back To Race [3:15]
18. Race Finale [1:42]
19. Finale And End Title [7:50]

** Original 1983 Soundtrack Album **
20. Alec And The Black Stallion [3:09]
21. Stowaway On The Clipper [2:08]
22. Raj Comes Home [3:33]
23. Meslar / Desert Hero [2:34]
24. Race And Escape [3:03]
25. Together Again [4:14]
26. Shetahn To Casablanca [1:28]
27. Oasis Attack [1:40]
28. Finale / The Black Stallion Returns [8:02]
Exact Audio Copy V1.0 beta 3 from 29. August 2011

EAC extraction logfile from 27. November 2014, 12:28

Georges Delerue / The Black Stallion Returns

Used drive : TSSTcorpCDDVDW TS-L633C Adapter: 2 ID: 0

Read mode : SecureUtilize accurate stream : YesDefeat audio cache : YesMake use of C2 pointers : No

Read offset correction : 6Overread into Lead-In and Lead-Out : NoFill up missing offset samples with silence : YesDelete leading and trailing silent blocks : NoNull samples used in CRC calculations : YesUsed interface : Native Win32 interface for Win NT & 2000

Used output format : Internal WAV RoutinesSample format : 44.100 Hz; 16 Bit; Stereo

TOC of the extracted CD

Track | Start | Length | Start sector | End sector --------------------------------------------------------- 1 | 0:00.00 | 3:15.20 | 0 | 14644 2 | 3:15.20 | 2:07.52 | 14645 | 24221 3 | 5:22.72 | 1:58.33 | 24222 | 33104 4 | 7:21.30 | 1:32.39 | 33105 | 40043 5 | 8:53.69 | 1:16.01 | 40044 | 45744 6 | 10:09.70 | 1:26.26 | 45745 | 52220 7 | 11:36.21 | 2:56.09 | 52221 | 65429 8 | 14:32.30 | 3:01.64 | 65430 | 79068 9 | 17:34.19 | 3:26.66 | 79069 | 94584 10 | 21:01.10 | 2:03.56 | 94585 | 103865 11 | 23:04.66 | 1:33.47 | 103866 | 110887 12 | 24:38.38 | 4:18.22 | 110888 | 130259 13 | 28:56.60 | 0:38.04 | 130260 | 133113 14 | 29:34.64 | 1:08.49 | 133114 | 138262 15 | 30:43.38 | 2:13.68 | 138263 | 148305 16 | 32:57.31 | 1:09.39 | 148306 | 153519 17 | 34:06.70 | 3:16.30 | 153520 | 168249 18 | 37:23.25 | 1:45.19 | 168250 | 176143 19 | 39:08.44 | 8:05.51 | 176144 | 212569 20 | 47:14.20 | 3:12.57 | 212570 | 227026 21 | 50:27.02 | 2:10.45 | 227027 | 236821 22 | 52:37.47 | 3:35.51 | 236822 | 252997 23 | 56:13.23 | 2:37.26 | 252998 | 264798 24 | 58:50.49 | 3:05.48 | 264799 | 278721 25 | 61:56.22 | 4:16.03 | 278722 | 297924 26 | 66:12.25 | 1:30.50 | 297925 | 304724 27 | 67:43.00 | 1:44.14 | 304725 | 312538 28 | 69:27.14 | 8:05.48 | 312539 | 348961

Range status and errors

Selected range

Filename H:\Georges Delerue - CD Collection [by italia57]\Georges Delerue (1983) The Black Stallion Returns\Georges Delerue - The Black Stallion Returns (Intrada SCV 117).wav

Peak level 100.0 % Extraction speed 1.7 X Range quality 100.0 % Test CRC 50A71FE9 Copy CRC 50A71FE9 Copy OK

No errors occurred

AccurateRip summary

Track 1 accurately ripped (confidence 6) [877B96DB] (AR v2)Track 2 accurately ripped (confidence 6) [1329CB5F] (AR v2)Track 3 accurately ripped (confidence 6) [A9DDC827] (AR v2)Track 4 accurately ripped (confidence 6) [E3078C19] (AR v2)Track 5 accurately ripped (confidence 6) [6A73E2D0] (AR v2)Track 6 accurately ripped (confidence 6) [386E198A] (AR v2)Track 7 accurately ripped (confidence 6) [7D36AA8B] (AR v2)Track 8 accurately ripped (confidence 6) [5CDCD6FE] (AR v2)Track 9 accurately ripped (confidence 6) [CF6F2CFD] (AR v2)Track 10 accurately ripped (confidence 6) [F70EE4FF] (AR v2)Track 11 accurately ripped (confidence 6) [E0051575] (AR v2)Track 12 accurately ripped (confidence 6) [D5FEDA93] (AR v2)Track 13 accurately ripped (confidence 6) [0438BDC4] (AR v2)Track 14 accurately ripped (confidence 6) [6136B377] (AR v2)Track 15 accurately ripped (confidence 6) [65316BA4] (AR v2)Track 16 accurately ripped (confidence 6) [F2FE1B88] (AR v2)Track 17 accurately ripped (confidence 6) [CC0F484F] (AR v2)Track 18 accurately ripped (confidence 6) [9E1B1B95] (AR v2)Track 19 accurately ripped (confidence 6) [EB6FB1A7] (AR v2)Track 20 accurately ripped (confidence 6) [B7295538] (AR v2)Track 21 accurately ripped (confidence 6) [61C5545B] (AR v2)Track 22 accurately ripped (confidence 6) [564BEABE] (AR v2)Track 23 accurately ripped (confidence 6) [6567C2E3] (AR v2)Track 24 accurately ripped (confidence 6) [B33532B4] (AR v2)Track 25 accurately ripped (confidence 6) [A6C2BFAA] (AR v2)Track 26 accurately ripped (confidence 6) [9E009241] (AR v2)Track 27 accurately ripped (confidence 6) [B9A58E0C] (AR v2)Track 28 accurately ripped (confidence 6) [671F4C95] (AR v2)

All tracks accurately ripped

End of status report

---- CUETools DB Plugin V2.1.4

[CTDB TOCID: plItIWQEJlQPKfQz736ZGQOXgfc-] foundSubmit result: plItIWQEJlQPKfQz736ZGQOXgfc- has been confirmedTrack | CTDB Status 1 | (3/3) Accurately ripped 2 | (3/3) Accurately ripped 3 | (3/3) Accurately ripped 4 | (3/3) Accurately ripped 5 | (3/3) Accurately ripped 6 | (3/3) Accurately ripped 7 | (3/3) Accurately ripped 8 | (3/3) Accurately ripped 9 | (3/3) Accurately ripped 10 | (3/3) Accurately ripped 11 | (3/3) Accurately ripped 12 | (3/3) Accurately ripped 13 | (3/3) Accurately ripped 14 | (3/3) Accurately ripped 15 | (3/3) Accurately ripped 16 | (3/3) Accurately ripped 17 | (3/3) Accurately ripped 18 | (3/3) Accurately ripped 19 | (3/3) Accurately ripped 20 | (3/3) Accurately ripped 21 | (3/3) Accurately ripped 22 | (3/3) Accurately ripped 23 | (3/3) Accurately ripped 24 | (3/3) Accurately ripped 25 | (3/3) Accurately ripped 26 | (3/3) Accurately ripped 27 | (3/3) Accurately ripped 28 | (3/3) Accurately ripped

==== Log checksum 62C1546DBEE89841FCF8C64802E587DA7D645B5B166FB77BA736EF7708951B3D ====
REM GENRE SoundtrackREM DATE 1983REM DISCID B6122C1CREM COMMENT "ExactAudioCopy v1.0b3"PERFORMER "Georges Delerue"TITLE "The Black Stallion Returns"FILE "Georges Delerue - The Black Stallion Returns (Intrada SCV 117).flac" WAVE TRACK 01 AUDIO TITLE "Prologue And Main Title" PERFORMER "Georges Delerue" INDEX 01 00:00:00 TRACK 02 AUDIO TITLE "Barn Fire" PERFORMER "Georges Delerue" INDEX 01 03:15:20 TRACK 03 AUDIO TITLE "Escape From Truck" PERFORMER "Georges Delerue" INDEX 01 05:22:72 TRACK 04 AUDIO TITLE "By The Docks" PERFORMER "Georges Delerue" INDEX 01 07:21:30 TRACK 05 AUDIO TITLE "Clipper Take-Off" PERFORMER "Georges Delerue" INDEX 01 08:53:69 TRACK 06 AUDIO TITLE "Meslar Approaches" PERFORMER "Georges Delerue" INDEX 01 10:09:70 TRACK 07 AUDIO TITLE "Uruk Gunfire" PERFORMER "Georges Delerue" INDEX 01 11:36:21 TRACK 08 AUDIO TITLE "Meslar's Battle And Death" PERFORMER "Georges Delerue" INDEX 01 14:32:30 TRACK 09 AUDIO TITLE "Thirsty Trek" PERFORMER "Georges Delerue" INDEX 01 17:34:19 TRACK 10 AUDIO TITLE "Raj's People Approach" PERFORMER "Georges Delerue" INDEX 01 21:01:10 TRACK 11 AUDIO TITLE "Meet Sagr" PERFORMER "Georges Delerue" INDEX 01 23:04:66 TRACK 12 AUDIO TITLE "Reunion" PERFORMER "Georges Delerue" INDEX 01 24:38:38 TRACK 13 AUDIO TITLE "Easy Boy" PERFORMER "Georges Delerue" INDEX 01 28:56:60 TRACK 14 AUDIO TITLE "Uruk Attack" PERFORMER "Georges Delerue" INDEX 01 29:34:64 TRACK 15 AUDIO TITLE "Escape From Uruks" PERFORMER "Georges Delerue" INDEX 01 30:43:38 TRACK 16 AUDIO TITLE "Scarface Push" PERFORMER "Georges Delerue" INDEX 01 32:57:31 TRACK 17 AUDIO TITLE "Back To Race" PERFORMER "Georges Delerue" INDEX 01 34:06:70 TRACK 18 AUDIO TITLE "Race Finale" PERFORMER "Georges Delerue" INDEX 01 37:23:25 TRACK 19 AUDIO TITLE "Finale And End Title" PERFORMER "Georges Delerue" INDEX 01 39:08:44 TRACK 20 AUDIO TITLE "Alec And The Black Stallion" PERFORMER "Georges Delerue" INDEX 01 47:14:20 TRACK 21 AUDIO TITLE "Stowaway On The Clipper" PERFORMER "Georges Delerue" INDEX 01 50:27:02 TRACK 22 AUDIO TITLE "Raj Comes Home" PERFORMER "Georges Delerue" INDEX 01 52:37:47 TRACK 23 AUDIO TITLE "Meslar - Desert Hero" PERFORMER "Georges Delerue" INDEX 01 56:13:23 TRACK 24 AUDIO TITLE "Race And Escape" PERFORMER "Georges Delerue" INDEX 01 58:50:49 TRACK 25 AUDIO TITLE "Together Again" PERFORMER "Georges Delerue" INDEX 01 61:56:22 TRACK 26 AUDIO TITLE "Shetahn to Casablanca" PERFORMER "Georges Delerue" INDEX 01 66:12:25 TRACK 27 AUDIO TITLE "Oasis Attack" PERFORMER "Georges Delerue" INDEX 01 67:43:00 TRACK 28 AUDIO TITLE "Finale" PERFORMER "Georges Delerue" INDEX 01 69:27:14


Трекер:  [ 28-Ноя-2014 23:30 ]

  

Скачать .torrent

Размер .torrent файла 18 KB


Размер: 409 MB
Хэш (hash) релиза: 4dfacbbe9ef14cdd8c11b09dbd81685f98ef78af

Торренты, похожие на Возвращение черного скакуна The Black Stallion Returns скачать торрент

Форум Название Автор Размер S L Добавлен
Саундтреки к фильмам и мультфильмам (mp3) ·· (Score) Чёрный скакун / The Black Stallion (1979, Carmine Coppola, 3CD) + Возвращение чёрного скакуна / The Black Stallion Returns (1983, Georges Delerue) — 2009, MP3 (tracks), 320 kbps Galfimbul 495010467472 MB 0 0 1496050195

12:29

29-Май-17

Еще никто не оставлял запись к записи скачать торрент Возвращение черного скакуна The Black Stallion Returns . Будь первым!

!Обратная связь