Скачать через торрент Сёстры-колдуньи Йойо и Нэнэ Majokko Shimai no Yoyo to Nene бесплатно Аниме Все серии на русском torrent

Если у вас наблюдаются проблемы со скриншотами, переходом по ссылками, скачиванием торрентов - проблемы в блокировщике рекламы AdBlock. #хорошегоДня!


Статистика раздачи
Размер:  2.85 GB   |    Зарегистрирован:  3 года   |    .torrent скачан:  23 раза   |   
Раздают:  1  
   
Загрузка...
 
Автор Сообщение

Galfimbul

avatar Galfimbul


Сёстры-колдуньи Йойо и Нэнэ / Majokko Shimai no Yoyo to Nene / Magical Sisters Yoyo and Nene
Страна: Япония
Год выпуска: 2013
Жанр: приключения, фэнтези, махо-сёдзё
Тип: Movie
Продолжительность: 1 ч 40 мин
Озвучка:
Многоголосная SHIZA Project
участники: Elias, GreyMoon, NIKITOS, Aska, Chigusa, Ruri, NesTea, Лизавета
Субтитры: есть
русские (внешние) ASS (полные / надписи)
от Timecraft & GMC
перевод: DARio; редактура: Buka63, Schum; лирика: Schum; оформление: DJATOM; QC: AoZaki
английские (встроенные) ASS Watashi
Студия:
Режиссер: Хирао Такаюки
Описание: Это история о двух сёстрах из фэнтезийного мира, занимающихся наведением и снятием проклятий. Однажды прямо у них на глазах из земли вырастает огромное дерево, из которого в буквальном смысле торчат небоскрёбы. Через лифт в одном из них старшая сестра Йойо попадает в мир людей, где тоже творится что-то неладное. Так начинается приключение, в ходе которого Йойо и Нэнэ предстоит выяснить, кто же на самом деле за всем этим стоит. Ну и спасти мир, конечно же, – без этого настоящим колдуньям никуда.

© World Art
Качество: BDRip
Релиз/Автор рипа: Watashi
Совместимость с бытовыми плеерами: Нет
Наличие линковки: Нет
Тип видео: без хардсаба
Формат: MKV
Видео: x264, 1280x548, 2,35:1, ~3150кбит/с, 23.976fps, 10 bit
Аудио #1 (внешняя) русская - AAC, 2 ch, 192кбит/с, 48000Hz
Аудио #2 (в контейнере) японская - AC3, 6 ch, 640кбит/с, 48000Hz
* Чтобы смотреть с озвучкой, необходимо из папки Rus sound [SHIZA Project] переписать файл в папку, где находятся видеофайл. Далее, следует запустить плеер и переключиться на mka-дорожку. Подробное описание [url=...2403326]здесь[/url]
* Чтобы смотреть 10-битное видео (10bit), необходимо, исходя из ваших предпочтений используемого проигрывателя, воспользоваться
[url=...3682344]этой инструкцией.[/url]
* Чтобы смотреть с субтитрами, необходимо из папки Rus subs [Timecraft & GMC] переписать файл в папку, где находятся видеофайл. В большинстве плееров, одноимённые субтитры подключатся автоматически.

[url]...4822541[/url] - 720p
[url]...4801809[/url] - наличие озвучки, 720p


Общее
Уникальный идентификатор : 228589148435823783021201663843758169026 (0xABF8AB28F0C7AF509F06544100D2DBC2)
Полное имя : C:\Торренты №2\Majokko Shimai no Yoyo to Nene [BDRip 720p]\[Watashi]_Majokko_Shimai_no_Yoyo_to_Nene_[BD_720p_AC3_5.1].mkv
Формат : Matroska
Версия формата : Version 2
Размер файла : 2,72 Гбайт
Продолжительность : 1 ч. 40 м.
Общий поток : 3876 Кбит/сек
Название фильма : [Watashi]_Majokko_Shimai_no_Yoyo_to_Nene_[BD_720p_AC3_5.1]
Дата кодирования : UTC 2014-12-01 07:49:43
Программа кодирования : mkvmerge v2.9.7 ('Tenderness') built on Jul 1 2009 18:43:35
Библиотека кодирования : libebml v0.7.7 + libmatroska v0.8.1
Attachment : Yes / Yes / Yes / Yes / Yes / Yes / Yes / Yes / Yes / Yes / Yes / Yes / Yes / Yes / Yes / Yes / Yes / Yes / Yes / Yes / Yes / Yes / Yes / Yes / Yes / Yes / Yes / Yes / Yes / Yes / Yes / Yes / Yes / Yes / Yes / Yes / Yes / Yes / Yes

Видео
Идентификатор : 1
Формат : AVC
Формат/Информация : Advanced Video Codec
Профиль формата : High 10@L5.0
Параметр CABAC формата : Да
Параметр ReFrames формата : 16 кадров
Идентификатор кодека : V_MPEG4/ISO/AVC
Продолжительность : 1 ч. 40 м.
Битрейт : 3159 Кбит/сек
Ширина : 1280 пикселей
Высота : 548 пикселей
Соотношение сторон : 2,35:1
Режим частоты кадров : Постоянный
Частота кадров : 23,976 кадра/сек
Цветовое пространство : YUV
Субдискретизация насыщенности : 4:2:0
Битовая глубина : 10 бит
Тип развёртки : Прогрессивная
Бит/(Пиксели*Кадры) : 0.188
Размер потока : 2,21 Гбайт (81%)
Заголовок : Majokko Shimai no Yoyo to Nene
Библиотека кодирования : x264 core 142 r2431+42 c69a006 tMod [10-bit@all X86_64]
Настройки программы : cabac=1 / ref=16 / deblock=1:-1:-1 / analyse=0x3:0x133 / me=umh / subme=10 / psy=1 / fade_compensate=1.00 / psy_rd=0.82:0.15 / mixed_ref=1 / me_range=24 / chroma_me=1 / trellis=2 / 8x8dct=1 / cqm=0 / deadzone=21,11 / fast_pskip=0 / chroma_qp_offset=-3 / threads=6 / lookahead_threads=1 / sliced_threads=0 / nr=0 / decimate=0 / interlaced=0 / bluray_compat=0 / constrained_intra=0 / fgo=2 / bframes=16 / b_pyramid=2 / b_adapt=2 / b_bias=0 / direct=3 / weightb=1 / open_gop=0 / weightp=2 / keyint=240 / keyint_min=23 / scenecut=40 / intra_refresh=0 / rc_lookahead=60 / rc=crf / mbtree=1 / crf=17.0000 / qcomp=0.80 / qpmin=0:0:0 / qpmax=81:81:81 / qpstep=4 / ip_ratio=1.40 / aq=3:0.80 / aq-sensitivity=10.00 / aq-factor=1.00:1.00:1.00 / aq2=0 / aq3=1:[0.00:0.00]:[0.00:0.30]:[-0.50:0.30]:[-0.20:0.20] / aq3-sensitivity=10.00 / aq3-factor=[1.00:1.00]:[1.00:1.00]:[1.00:1.00] / aq3-boundary=768:256:96
Язык : English
Default : Да
Forced : Нет

Аудио
Идентификатор : 2
Формат : AC-3
Формат/Информация : Audio Coding 3
Расширение режима : CM (complete main)
Параметр Endianness формата : Big
Идентификатор кодека : A_AC3
Продолжительность : 1 ч. 40 м.
Вид битрейта : Постоянный
Битрейт : 640 Кбит/сек
Каналы : 6 каналов
Расположение каналов : Front: L C R, Side: L R, LFE
Частота : 48,0 КГц
Битовая глубина : 16 бит
Метод сжатия : С потерями
Размер потока : 459 Мбайт (17%)
Заголовок : AC3 5.1 640 kbps
Язык : Japanese
Default : Да
Forced : Нет

Текст
Идентификатор : 3
Формат : ASS
Идентификатор кодека : S_TEXT/ASS
Идентификатор кодека/Информация : Advanced Sub Station Alpha
Метод сжатия : Без потерь
Язык : English
Default : Нет
Forced : Нет

Меню
00:00:00.000 : :Ads
00:00:29.596 : :Intro
00:04:18.764 : :OP
00:05:19.191 : :Majokko Shimai
01:36:16.693 : :ED
01:39:45.049 : :Outro



Трекер:  [ 01-Дек-2014 12:00 ]

  

Скачать .torrent

Размер .torrent файла 15 KB


Размер: 2.85 GB
Хэш (hash) релиза: 5367b557d89a5e0e0c62a0e70b0eb97fb58f5cb8
Подписка на обновления:

Еще никто не оставлял запись к записи скачать торрент Сёстры-колдуньи Йойо и Нэнэ Majokko Shimai no Yoyo to Nene . Будь первым!

!Обратная связь