Скачать через торрент музыку Сальвадор Salvador - Взвод бесплатно без регистрации torrent

Если у вас наблюдаются проблемы со скриншотами, переходом по ссылками, скачиванием торрентов - проблемы в блокировщике рекламы AdBlock. #хорошегоДня!


Статистика раздачи
Размер:  432 MB   |    Зарегистрирован:  3 года   |    .torrent скачан:  42 раза   |   
Раздают:  1  
   
Загрузка...
 
Автор Сообщение

Galfimbul

avatar Galfimbul



Сальвадор / Salvador
Взвод / Platoon
Composed and Conducted by Georges Delerue

Жанр: Score | Дата выпуска: 1995 (2001 Repress)
Издатель (лейбл): Prometheus | Номер по каталогу: PCD 136
Аудиокодек: FLAC | Тип рипа: image+.cue | Битрейт аудио: lossless
Общая продолжительность: 54:02
Источник: Рип оригинального диска из личной коллекции
** Salvador ** (1986)
01. Main Title "Salvador" [02:32]
02. El Playon [02:16]
03. At the Border [01:12]
04. The Road Block [01:22]
05. The Assassination [02:03]
06. Carlos Is Dead [00:52]
07. Tanks and Troops [01:22]
08. Salvador [01:01]
09. Goodbye, Maria [01:38]
10. Siege at Santa Ana [03:18]
11. The Mourners [01:22]
12. Love Theme - Finale [04:24]

** Platoon ** (1986)
13. Main Title "Platoon" [02:27]
14. Bunker to Village [03:32]
15. Sorrow [01:58]
16. Barnes Shoots Elias / The Turning Point [05:21]
17. The Soul of an Innocent [02:38]
18. Killing Barnes / Aftermath [01:59]
19. Finale [05:54]
20. "Adagio for Strings" (Barber) [06:51]
Exact Audio Copy V1.0 beta 3 from 29. August 2011

EAC extraction logfile from 25. October 2014, 23:23

Georges Delerue / Salvador

Used drive : TSSTcorpCDDVDW TS-L633C Adapter: 2 ID: 0

Read mode : SecureUtilize accurate stream : YesDefeat audio cache : YesMake use of C2 pointers : No

Read offset correction : 6Overread into Lead-In and Lead-Out : NoFill up missing offset samples with silence : YesDelete leading and trailing silent blocks : NoNull samples used in CRC calculations : YesUsed interface : Native Win32 interface for Win NT & 2000

Used output format : Internal WAV RoutinesSample format : 44.100 Hz; 16 Bit; Stereo

TOC of the extracted CD

Track | Start | Length | Start sector | End sector --------------------------------------------------------- 1 | 0:00.00 | 2:34.05 | 0 | 11554 2 | 2:34.05 | 2:18.42 | 11555 | 21946 3 | 4:52.47 | 1:14.40 | 21947 | 27536 4 | 6:07.12 | 1:23.67 | 27537 | 33828 5 | 7:31.04 | 2:05.15 | 33829 | 43218 6 | 9:36.19 | 0:54.17 | 43219 | 47285 7 | 10:30.36 | 1:24.36 | 47286 | 53621 8 | 11:54.72 | 1:02.30 | 53622 | 58301 9 | 12:57.27 | 1:38.56 | 58302 | 65707 10 | 14:36.08 | 3:20.43 | 65708 | 80750 11 | 17:56.51 | 1:24.29 | 80751 | 87079 12 | 19:21.05 | 4:26.32 | 87080 | 107061 13 | 23:47.37 | 2:29.38 | 107062 | 118274 14 | 26:17.00 | 3:34.31 | 118275 | 134355 15 | 29:51.31 | 1:59.60 | 134356 | 143340 16 | 31:51.16 | 5:23.34 | 143341 | 167599 17 | 37:14.50 | 2:40.39 | 167600 | 179638 18 | 39:55.14 | 2:01.31 | 179639 | 188744 19 | 41:56.45 | 5:55.61 | 188745 | 215430 20 | 47:52.31 | 6:52.72 | 215431 | 246402

Range status and errors

Selected range

Filename H:\Georges Delerue - CD Collection [by italia57]\Georges Delerue (1986) Salvador + Platoon\Georges Delerue - Salvador + Platoon (PCD 136).wav

Peak level 82.7 % Extraction speed 1.4 X Range quality 100.0 % Test CRC DE734BF6 Copy CRC DE734BF6 Copy OK

No errors occurred

AccurateRip summary

Track 1 accurately ripped (confidence 1) [110CF337] (AR v2)Track 2 accurately ripped (confidence 1) [7B168E13] (AR v2)Track 3 accurately ripped (confidence 1) [C8BCAD0B] (AR v2)Track 4 accurately ripped (confidence 1) [43AB21F6] (AR v2)Track 5 accurately ripped (confidence 1) [324F1AEB] (AR v2)Track 6 accurately ripped (confidence 1) [A5BB65D5] (AR v2)Track 7 accurately ripped (confidence 1) [EDBEF9BC] (AR v2)Track 8 accurately ripped (confidence 1) [213CDBBF] (AR v2)Track 9 accurately ripped (confidence 1) [6E074DD3] (AR v2)Track 10 accurately ripped (confidence 1) [A81B792B] (AR v2)Track 11 accurately ripped (confidence 1) [9BF1163D] (AR v2)Track 12 accurately ripped (confidence 1) [66BAFA4B] (AR v2)Track 13 accurately ripped (confidence 1) [815181C5] (AR v2)Track 14 accurately ripped (confidence 1) [4DA5D90A] (AR v2)Track 15 accurately ripped (confidence 1) [A1211A6B] (AR v2)Track 16 accurately ripped (confidence 1) [7A6290AA] (AR v2)Track 17 accurately ripped (confidence 1) [4CF905A3] (AR v2)Track 18 accurately ripped (confidence 1) [ED2779B8] (AR v2)Track 19 accurately ripped (confidence 1) [14E55337] (AR v2)Track 20 accurately ripped (confidence 1) [1CDA06D7] (AR v2)

All tracks accurately ripped

End of status report

---- CUETools DB Plugin V2.1.4

[CTDB TOCID: gRkn4yN1W2TJmyjhtMZN7hBuf0U-] disk not present in databaseSubmit result: gRkn4yN1W2TJmyjhtMZN7hBuf0U- has been uploaded

==== Log checksum 37EE45D18B616CD562E7A6B695D579022BF6E74D992A1997554E51BD97C72E9E ====
REM GENRE SoundtrackREM DATE 1986REM DISCID 410CD514REM COMMENT "ExactAudioCopy v1.0b3"PERFORMER "Georges Delerue"TITLE "Salvador"FILE "Georges Delerue - Salvador + Platoon (PCD 136).flac" WAVE TRACK 01 AUDIO TITLE "Salvador - Main Title" PERFORMER "Georges Delerue" INDEX 01 00:00:00 TRACK 02 AUDIO TITLE "El Playon" PERFORMER "Georges Delerue" INDEX 00 02:32:07 INDEX 01 02:34:05 TRACK 03 AUDIO TITLE "At The Border" PERFORMER "Georges Delerue" INDEX 00 04:50:48 INDEX 01 04:52:47 TRACK 04 AUDIO TITLE "The Road Block" PERFORMER "Georges Delerue" INDEX 00 06:05:16 INDEX 01 06:07:12 TRACK 05 AUDIO TITLE "The Assassination" PERFORMER "Georges Delerue" INDEX 00 07:29:04 INDEX 01 07:31:04 TRACK 06 AUDIO TITLE "Carlos Is Dead" PERFORMER "Georges Delerue" INDEX 00 09:34:23 INDEX 01 09:36:19 TRACK 07 AUDIO TITLE "Tanks And Troops" PERFORMER "Georges Delerue" INDEX 00 10:28:37 INDEX 01 10:30:36 TRACK 08 AUDIO TITLE "Salvador" PERFORMER "Georges Delerue" INDEX 00 11:52:74 INDEX 01 11:54:72 TRACK 09 AUDIO TITLE "Goodbye, Maria" PERFORMER "Georges Delerue" INDEX 00 12:55:36 INDEX 01 12:57:27 TRACK 10 AUDIO TITLE "Siege At Santa Ana" PERFORMER "Georges Delerue" INDEX 00 14:34:09 INDEX 01 14:36:08 TRACK 11 AUDIO TITLE "The Mourners" PERFORMER "Georges Delerue" INDEX 00 17:54:57 INDEX 01 17:56:51 TRACK 12 AUDIO TITLE "Love Theme - Finale" PERFORMER "Georges Delerue" INDEX 00 19:19:05 INDEX 01 19:21:05 TRACK 13 AUDIO TITLE "Platoon - Main Title" PERFORMER "Georges Delerue" INDEX 00 23:45:39 INDEX 01 23:47:37 TRACK 14 AUDIO TITLE "Bunker To Village" PERFORMER "Georges Delerue" INDEX 00 26:15:02 INDEX 01 26:17:00 TRACK 15 AUDIO TITLE "Sorrow" PERFORMER "Georges Delerue" INDEX 00 29:49:34 INDEX 01 29:51:31 TRACK 16 AUDIO TITLE "Barnes Shoots Elias - The Turning Point" PERFORMER "Georges Delerue" INDEX 00 31:49:16 INDEX 01 31:51:16 TRACK 17 AUDIO TITLE "The Soul Of An Innocent" PERFORMER "Georges Delerue" INDEX 00 37:12:55 INDEX 01 37:14:50 TRACK 18 AUDIO TITLE "Killing Barnes - Aftermath" PERFORMER "Georges Delerue" INDEX 00 39:53:15 INDEX 01 39:55:14 TRACK 19 AUDIO TITLE "Finale" PERFORMER "Georges Delerue" INDEX 00 41:54:46 INDEX 01 41:56:45 TRACK 20 AUDIO TITLE "Adagio For Strings (Barber) (Featuring Charlie Sheen)" PERFORMER "Georges Delerue" INDEX 00 47:50:32 INDEX 01 47:52:31


Трекер:  [ 08-Дек-2014 23:30 ]

  

Скачать .torrent

Размер .torrent файла 18 KB


Размер: 432 MB
Хэш (hash) релиза: b76eba82df8104d9b74e05d228c2b56e98c76c34

Еще никто не оставлял запись к записи скачать торрент Сальвадор Salvador - Взвод . Будь первым!

!Обратная связь