Скачать через торрент Удивительный мир Эль-Хазард бесплатно Аниме Все серии на русском torrent

Если у вас наблюдаются проблемы со скриншотами, переходом по ссылками, скачиванием торрентов - проблемы в блокировщике рекламы AdBlock. #хорошегоДня!


Статистика раздачи
Размер:  4.82 GB   |    Зарегистрирован:  3 года   |    .torrent скачан:  41 раз   |   
Раздают:  1  
   
Загрузка...
 
Автор Сообщение

Galfimbul

avatar Galfimbul


Удивительный мир Эль-Хазард OVA-1
El Hazard - The Magnificent World
Shinpi no Sekai El Hazard

Страна: Япония
Год выпуска: 1995 г.
Жанр: приключения, комедия, романтика, фэнтези
Тип: OVA
Продолжительность: 5 эп. по ~28 мин.; 2 эп по ~47 мин.
Режиссер: Хаяси Хироки
Студия: AIC

Описание: Современная Япония. После землетрясения в подвале старшей школы были найдены древние руины неизвестной цивилизации. В развалинах Мидзухары Макото, 17-летний парень-скромняга, обнаружил странную девушку, которая назвала его своим давним возлюбленным и отправила в другое измерение - в фэнтези-мир под названием Эль Хазард. Вместе с Макото в разных уголках Эль Хазарда оказались Дзиннай, его заклятый школьный соперник, его сестра Нанами и их учитель истории - тихий алкоголик Фудзисава Масамити...
Качество: BDRip
Тип релиза: Без хардсаба
Формат видео: MP4
Наличие линковки: Нет
Релиз/Автор рипа: Ohys-Raws
Видео: x264, 8 bit, 1280x960, 2580 kbps, 23.976 fps
Аудио: AAC, 211 kbps, 48 kHz, 2ch Язык Японский
Субтитры: SSA, внешние Язык субтитров русский ; Перевод: Terramorpher & Andy Panda
01. Ночь первая: Ночь Большой Путаницы
02. Ночь вторая: Прекрасные девы Эль-Хазарда
03. Ночь третья: Горячая баня Эль-Хазарда
04. Ночь четвертая: Легенда Эль-Хазарда
05. Ночь пятая: Гроза Эль-Хазарда
06. Ночь шестая: Cумерки Эль-Хазарда
07. Ночь седьмая: Бесконечный Эль-Хазард
[url]...4885994[/url] - другое разрешение: 960p.
GeneralComplete name : **\El-Hazard The Magnificent World [BD] [960p]\[Ohys-Raws] El-Hazard The Magnificent World - 01.mp4Format : MPEG-4Format profile : Base MediaCodec ID : isomFile size : 911 MiBDuration : 45mn 33sOverall bit rate mode : VariableOverall bit rate : 2 795 KbpsEncoded date : UTC 2014-12-06 05:50:23Tagged date : UTC 2014-12-06 05:50:23

VideoID : 1Format : AVCFormat/Info : Advanced Video CodecFormat profile : Main@L4.1Format settings, CABAC : YesFormat settings, ReFrames : 5 framesCodec ID : avc1Codec ID/Info : Advanced Video CodingDuration : 45mn 33sBit rate : 2 580 KbpsMaximum bit rate : 15.4 MbpsWidth : 1 280 pixelsHeight : 960 pixelsDisplay aspect ratio : 4:3Frame rate mode : ConstantFrame rate : 23.976 fpsColor space : YUVChroma subsampling : 4:2:0Bit depth : 8 bitsScan type : ProgressiveBits/(Pixel*Frame) : 0.088Stream size : 841 MiB (92%)Writing library : x264 core 128Encoding settings : cabac=1 / ref=6 / deblock=1:0:0 / analyse=0x1:0x111 / me=umh / subme=9 / psy=1 / psy_rd=1.00:0.00 / mixed_ref=1 / me_range=32 / chroma_me=1 / trellis=1 / 8x8dct=0 / cqm=0 / deadzone=21,11 / fast_pskip=1 / chroma_qp_offset=-2 / threads=12 / lookahead_threads=2 / sliced_threads=0 / nr=0 / decimate=1 / interlaced=0 / bluray_compat=1 / constrained_intra=0 / bframes=3 / b_pyramid=1 / b_adapt=1 / b_bias=0 / direct=1 / weightb=1 / open_gop=0 / weightp=1 / keyint=250 / keyint_min=1 / scenecut=40 / intra_refresh=0 / rc_lookahead=40 / rc=crf / mbtree=1 / crf=20.0 / qcomp=0.60 / qpmin=0 / qpmax=69 / qpstep=4 / ip_ratio=1.40 / aq=1:1.00Encoded date : UTC 2014-12-06 05:09:20Tagged date : UTC 2014-12-06 05:50:27

AudioID : 2Format : AACFormat/Info : Advanced Audio CodecFormat profile : LCCodec ID : 40Duration : 45mn 33sBit rate mode : VariableBit rate : 211 KbpsMaximum bit rate : 255 KbpsChannel count : 2 channelsChannel positions : Front: L RSampling rate : 48.0 KHzCompression mode : LossyStream size : 68.7 MiB (8%)Language : JapaneseEncoded date : UTC 2014-12-06 05:09:20Tagged date : UTC 2014-12-06 05:50:27


Трекер:  [ 10-Дек-2014 05:00 ]

  

Скачать .torrent

Размер .torrent файла 14 KB


Размер: 4.82 GB
Хэш (hash) релиза: db839f93a1ee80a905ac02bb86591a96da6d4814
Подписка на обновления:

Еще никто не оставлял запись к записи скачать торрент Удивительный мир Эль-Хазард . Будь первым!

!Обратная связь