Скачать через торрент музыку Конформист Il conformista бесплатно без регистрации torrent

Если у вас наблюдаются проблемы со скриншотами, переходом по ссылками, скачиванием торрентов - проблемы в блокировщике рекламы AdBlock. #хорошегоДня!


Статистика раздачи
Размер:  267 MB   |    Зарегистрирован:  3 года   |    .torrent скачан:  27 раз   |   
Раздают:  1  
   
Загрузка...
 
Автор Сообщение

Galfimbul

avatar Galfimbul



Конформист / Il conformista
Composed and Conducted by Georges Delerue
Limited Edition of 1000 Copies

Жанр: Score | Дата выпуска: 5 февраля 2013
Издатель (лейбл): Music Box Records | Номер по каталогу: MBR-022
Аудиокодек: FLAC | Тип рипа: image+.cue | Битрейт аудио: lossless
Общая продолжительность: 58:43
Источник: Рип оригинального диска из личной коллекции
** Le conformiste ** (1970)
01. Générique début [2:45]
02. Hôtel Palais d'Orsay [1:18]
03. Les Clerici [1:44]
04. O.K. Bull [2:36]
05. Couleurs de Paris [1:48]
06. Violettes de Parme [1:28]
07. Foxtrot du Maestro Delerue [2:09]
08. Ester [2:05]
09. Le Ministre [1:13]
10. Fiacre [1:58]
11. Il Conformista [2:15]
12. École de danse [2:02]
13. Tango di rabbia [1:42]
14. Campagnola [2:27]
15. Cinque su dieci [2:19]
16. Gravita' estrema [0:57]
17. Anna, Ester et Marcello [2:14]
18. Valzer del Conformista [2:53]

** La petite fille en velours bleu ** (1978)
19. Thème de Laura [2:09]
20. La déposition [1:49]
21. Danse des nostalgiques [1:14]
22. Conrad et Francesca [0:49]
23. Mike [1:40]
24. Conrad et Laura [3:17]
25. La mort de Macha [2:05]
26. L'accident [1:48]
27. Fête chez les Casarès [3:32]
28. Le bar des alliés [1:26]
29. La petite fille en velours bleu [1:50]
Exact Audio Copy V1.0 beta 3 from 29. August 2011

EAC extraction logfile from 22. October 2014, 12:02

Georges Delerue / Le Conformiste

Used drive : TSSTcorpCDDVDW TS-L633C Adapter: 2 ID: 0

Read mode : SecureUtilize accurate stream : YesDefeat audio cache : YesMake use of C2 pointers : No

Read offset correction : 6Overread into Lead-In and Lead-Out : NoFill up missing offset samples with silence : YesDelete leading and trailing silent blocks : NoNull samples used in CRC calculations : YesUsed interface : Native Win32 interface for Win NT & 2000

Used output format : Internal WAV RoutinesSample format : 44.100 Hz; 16 Bit; Stereo

TOC of the extracted CD

Track | Start | Length | Start sector | End sector --------------------------------------------------------- 1 | 0:00.00 | 2:47.49 | 0 | 12573 2 | 2:47.49 | 1:20.45 | 12574 | 18618 3 | 4:08.19 | 1:46.23 | 18619 | 26591 4 | 5:54.42 | 2:38.09 | 26592 | 38450 5 | 8:32.51 | 1:50.23 | 38451 | 46723 6 | 10:22.74 | 1:30.18 | 46724 | 53491 7 | 11:53.17 | 2:11.72 | 53492 | 63388 8 | 14:05.14 | 2:07.36 | 63389 | 72949 9 | 16:12.50 | 1:15.65 | 72950 | 78639 10 | 17:28.40 | 2:00.17 | 78640 | 87656 11 | 19:28.57 | 2:17.31 | 87657 | 97962 12 | 21:46.13 | 2:04.37 | 97963 | 107299 13 | 23:50.50 | 1:44.40 | 107300 | 115139 14 | 25:35.15 | 2:29.02 | 115140 | 126316 15 | 28:04.17 | 2:21.34 | 126317 | 136925 16 | 30:25.51 | 0:59.03 | 136926 | 141353 17 | 31:24.54 | 2:16.27 | 141354 | 151580 18 | 33:41.06 | 2:57.29 | 151581 | 164884 19 | 36:38.35 | 2:11.28 | 164885 | 174737 20 | 38:49.63 | 1:51.48 | 174738 | 183110 21 | 40:41.36 | 1:16.63 | 183111 | 188873 22 | 41:58.24 | 0:51.27 | 188874 | 192725 23 | 42:49.51 | 1:42.01 | 192726 | 200376 24 | 44:31.52 | 3:19.66 | 200377 | 215367 25 | 47:51.43 | 2:07.19 | 215368 | 224911 26 | 49:58.62 | 1:50.22 | 224912 | 233183 27 | 51:49.09 | 3:34.33 | 233184 | 249266 28 | 55:23.42 | 1:28.18 | 249267 | 255884 29 | 56:51.60 | 1:50.07 | 255885 | 264141

Range status and errors

Selected range

Filename H:\Georges Delerue - CD Collection [by italia57]\Georges Delerue (1970) Le Conformiste\Georges Delerue - Le Conformiste (MBR-022).wav

Peak level 96.5 % Extraction speed 3.5 X Range quality 100.0 % Test CRC 886F532C Copy CRC 886F532C Copy OK

No errors occurred

AccurateRip summary

Track 1 accurately ripped (confidence 6) [3D39EA4D] (AR v2)Track 2 accurately ripped (confidence 6) [5D934EF1] (AR v2)Track 3 accurately ripped (confidence 6) [27EF3E32] (AR v2)Track 4 accurately ripped (confidence 6) [316727D3] (AR v2)Track 5 accurately ripped (confidence 6) [23F201BD] (AR v2)Track 6 accurately ripped (confidence 6) [3EAADE23] (AR v2)Track 7 accurately ripped (confidence 6) [7B8DB513] (AR v2)Track 8 accurately ripped (confidence 6) [C6CEF99D] (AR v2)Track 9 accurately ripped (confidence 6) [CF69F4DE] (AR v2)Track 10 accurately ripped (confidence 6) [B6B7CE27] (AR v2)Track 11 accurately ripped (confidence 6) [B603A219] (AR v2)Track 12 accurately ripped (confidence 6) [AA2B4A4E] (AR v2)Track 13 accurately ripped (confidence 6) [3F7C7443] (AR v2)Track 14 accurately ripped (confidence 6) [6A37C1EA] (AR v2)Track 15 accurately ripped (confidence 6) [7CE61557] (AR v2)Track 16 accurately ripped (confidence 6) [B9F997AE] (AR v2)Track 17 accurately ripped (confidence 6) [0BEA7202] (AR v2)Track 18 accurately ripped (confidence 6) [B5428E79] (AR v2)Track 19 accurately ripped (confidence 6) [19E253F3] (AR v2)Track 20 accurately ripped (confidence 6) [987487A8] (AR v2)Track 21 accurately ripped (confidence 6) [E099B535] (AR v2)Track 22 accurately ripped (confidence 6) [4FA51E40] (AR v2)Track 23 accurately ripped (confidence 6) [CE417987] (AR v2)Track 24 accurately ripped (confidence 6) [8D2AF983] (AR v2)Track 25 accurately ripped (confidence 6) [92BEFDED] (AR v2)Track 26 accurately ripped (confidence 6) [25A402B5] (AR v2)Track 27 accurately ripped (confidence 6) [C4856C6F] (AR v2)Track 28 accurately ripped (confidence 6) [B1107A5E] (AR v2)Track 29 accurately ripped (confidence 6) [5EA90072] (AR v2)

All tracks accurately ripped

End of status report

---- CUETools DB Plugin V2.1.4

[CTDB TOCID: 2L9ce.RQWtap7MLG0YFN4uVqSCU-] foundSubmit result: 2L9ce.RQWtap7MLG0YFN4uVqSCU- has been confirmedTrack | CTDB Status 1 | (1/1) Accurately ripped 2 | (1/1) Accurately ripped 3 | (1/1) Accurately ripped 4 | (1/1) Accurately ripped 5 | (1/1) Accurately ripped 6 | (1/1) Accurately ripped 7 | (1/1) Accurately ripped 8 | (1/1) Accurately ripped 9 | (1/1) Accurately ripped 10 | (1/1) Accurately ripped 11 | (1/1) Accurately ripped 12 | (1/1) Accurately ripped 13 | (1/1) Accurately ripped 14 | (1/1) Accurately ripped 15 | (1/1) Accurately ripped 16 | (1/1) Accurately ripped 17 | (1/1) Accurately ripped 18 | (1/1) Accurately ripped 19 | (1/1) Accurately ripped 20 | (1/1) Accurately ripped 21 | (1/1) Accurately ripped 22 | (1/1) Accurately ripped 23 | (1/1) Accurately ripped 24 | (1/1) Accurately ripped 25 | (1/1) Accurately ripped 26 | (1/1) Accurately ripped 27 | (1/1) Accurately ripped 28 | (1/1) Accurately ripped 29 | (1/1) Accurately ripped

==== Log checksum 3092485DF118889A0580D4392441CD1101783664E575FF5867F19783A7002C03 ====
REM GENRE SoundtrackREM DATE 1970REM DISCID 650DC11DREM COMMENT "ExactAudioCopy v1.0b3"PERFORMER "Georges Delerue"TITLE "Le Conformiste"FILE "Georges Delerue - Le Conformiste (MBR-022).flac" WAVE TRACK 01 AUDIO TITLE "Generique debut" PERFORMER "Georges Delerue" INDEX 01 00:00:00 TRACK 02 AUDIO TITLE "Hotel Palais D'Orsay" PERFORMER "Georges Delerue" INDEX 00 02:45:49 INDEX 01 02:47:49 TRACK 03 AUDIO TITLE "Les Clerici" PERFORMER "Georges Delerue" INDEX 00 04:06:19 INDEX 01 04:08:19 TRACK 04 AUDIO TITLE "O.K. Bull" PERFORMER "Georges Delerue" INDEX 00 05:52:42 INDEX 01 05:54:42 TRACK 05 AUDIO TITLE "Couleurs de Paris" PERFORMER "Georges Delerue" INDEX 00 08:30:51 INDEX 01 08:32:51 TRACK 06 AUDIO TITLE "Violettes de Parme" PERFORMER "Georges Delerue" INDEX 00 10:20:74 INDEX 01 10:22:74 TRACK 07 AUDIO TITLE "Foxtrot du Maestro Delerue" PERFORMER "Georges Delerue" INDEX 00 11:51:17 INDEX 01 11:53:17 TRACK 08 AUDIO TITLE "Ester" PERFORMER "Georges Delerue" INDEX 00 14:03:14 INDEX 01 14:05:14 TRACK 09 AUDIO TITLE "Le ministre" PERFORMER "Georges Delerue" INDEX 00 16:10:50 INDEX 01 16:12:50 TRACK 10 AUDIO TITLE "Fiacre" PERFORMER "Georges Delerue" INDEX 00 17:26:40 INDEX 01 17:28:40 TRACK 11 AUDIO TITLE "Il conformista" PERFORMER "Georges Delerue" INDEX 00 19:26:57 INDEX 01 19:28:57 TRACK 12 AUDIO TITLE "Ecole de danse" PERFORMER "Georges Delerue" INDEX 00 21:43:64 INDEX 01 21:46:13 TRACK 13 AUDIO TITLE "Tango di rabbia" PERFORMER "Georges Delerue" INDEX 00 23:48:50 INDEX 01 23:50:50 TRACK 14 AUDIO TITLE "Campagnola" PERFORMER "Georges Delerue" INDEX 00 25:33:15 INDEX 01 25:35:15 TRACK 15 AUDIO TITLE "Cinque su dieci" PERFORMER "Georges Delerue" INDEX 00 28:02:17 INDEX 01 28:04:17 TRACK 16 AUDIO TITLE "Gravita estrema" PERFORMER "Georges Delerue" INDEX 00 30:23:51 INDEX 01 30:25:51 TRACK 17 AUDIO TITLE "Anna, Ester et Marcello" PERFORMER "Georges Delerue" INDEX 00 31:22:54 INDEX 01 31:24:54 TRACK 18 AUDIO TITLE "Valzer del Conformista" PERFORMER "Georges Delerue" INDEX 00 33:39:06 INDEX 01 33:41:06 TRACK 19 AUDIO TITLE "Theme de Laura" PERFORMER "Georges Delerue" INDEX 00 36:34:35 INDEX 01 36:38:35 TRACK 20 AUDIO TITLE "La deposition" PERFORMER "Georges Delerue" INDEX 00 38:47:63 INDEX 01 38:49:63 TRACK 21 AUDIO TITLE "Danse des nostalgiques" PERFORMER "Georges Delerue" INDEX 00 40:39:36 INDEX 01 40:41:36 TRACK 22 AUDIO TITLE "Conrad et Francesca" PERFORMER "Georges Delerue" INDEX 00 41:56:24 INDEX 01 41:58:24 TRACK 23 AUDIO TITLE "Mike" PERFORMER "Georges Delerue" INDEX 00 42:47:51 INDEX 01 42:49:51 TRACK 24 AUDIO TITLE "Conrad et Laura" PERFORMER "Georges Delerue" INDEX 00 44:29:52 INDEX 01 44:31:52 TRACK 25 AUDIO TITLE "La mort de Macha" PERFORMER "Georges Delerue" INDEX 00 47:49:43 INDEX 01 47:51:43 TRACK 26 AUDIO TITLE "L'accident" PERFORMER "Georges Delerue" INDEX 00 49:56:62 INDEX 01 49:58:62 TRACK 27 AUDIO TITLE "Fete chez les Casares" PERFORMER "Georges Delerue" INDEX 00 51:47:09 INDEX 01 51:49:09 TRACK 28 AUDIO TITLE "Le bar des allies" PERFORMER "Georges Delerue" INDEX 00 55:21:42 INDEX 01 55:23:42 TRACK 29 AUDIO TITLE "La petite fille en velours bleu" PERFORMER "Georges Delerue" INDEX 00 56:49:60 INDEX 01 56:51:60


Трекер:  [ 13-Дек-2014 20:30 ]

  

Скачать .torrent

Размер .torrent файла 11 KB


Размер: 267 MB
Хэш (hash) релиза: d8dc43c778cb0f5608d8569885b74d74b070626d

Еще никто не оставлял запись к записи скачать торрент Конформист Il conformista . Будь первым!

!Обратная связь