Скачать через торрент музыку Sex бесплатно без регистрации torrent

Если у вас наблюдаются проблемы со скриншотами, переходом по ссылками, скачиванием торрентов - проблемы в блокировщике рекламы AdBlock. #хорошегоДня!


Статистика раздачи
Размер:  280 MB   |    Зарегистрирован:  2 года 11 месяцев   |    .torrent скачан:  47 раз   |   
Раздают:  3  
   
Загрузка...
 
Автор Сообщение

Galfimbul

avatar Galfimbul


Sex

Название альбома: Michael Ninn's Sex
Жанр: Score
Композитор: Dino Ninn & Earl Ninn
Год выпуска диска: 1994
Год выпуска фильма: 1994
Страна-производитель диска: USA
Аудиокодек: FLAC (*.flac)
Тип рипа: image+.cue
Битрейт аудио: lossless
Продолжительность: 00:49:24
Источник: собственный рип
Наличие сканов в содержимом раздачи: да
Треклист:
1. Sex - Themе (02:03)
2. Stay (04:59)
3. Guilt (04:59)
4. The Boss (05:43)
5. Your Dreams (02:44)
6. Sex, Power, Money (04:00)
7. Pink (04:27)
8. A Dream To Flesh (Unplugged) (04:03)
9. You Get Nothing (06:12)
10. Not, More Than Everything (05:44)
11. A Dream To Flesh (04:23)
Exact Audio Copy V1.0 beta 4 from 7. December 2014

EAC extraction logfile from 20. December 2014, 14:29

Dino Ninn & Earl Ninn / Michael Ninn's Sex

Used drive : Optiarc DVD RW AD-7280S Adapter: 1 ID: 0

Read mode : SecureUtilize accurate stream : YesDefeat audio cache : YesMake use of C2 pointers : No

Read offset correction : 48Overread into Lead-In and Lead-Out : NoFill up missing offset samples with silence : YesDelete leading and trailing silent blocks : NoNull samples used in CRC calculations : YesUsed interface : Native Win32 interface for Win NT & 2000

Used output format : User Defined EncoderSelected bitrate : 128 kBit/sQuality : HighAdd ID3 tag : NoCommand line compressor : F:\flac-1.3.1-win\win64\flac.exeAdditional command line options : -V -8 -T "Date=%year%" -T "Genre=%genre%" %source%

TOC of the extracted CD

Track | Start | Length | Start sector | End sector --------------------------------------------------------- 1 | 0:00.32 | 2:03.35 | 32 | 9291 2 | 2:03.67 | 4:59.65 | 9292 | 31781 3 | 7:03.57 | 4:59.63 | 31782 | 54269 4 | 12:03.45 | 5:43.65 | 54270 | 80059 5 | 17:47.35 | 2:44.52 | 80060 | 92411 6 | 20:32.12 | 4:00.25 | 92412 | 110436 7 | 24:32.37 | 4:27.35 | 110437 | 130496 8 | 28:59.72 | 4:03.63 | 130497 | 148784 9 | 33:03.60 | 6:12.47 | 148785 | 176731 10 | 39:16.32 | 5:44.68 | 176732 | 202599 11 | 45:01.25 | 4:23.02 | 202600 | 222326

Range status and errors

Selected range

Filename F:\Dino Ninn & Earl Ninn - Michael Ninn's Sex.wav

Peak level 68.6 % Extraction speed 3.8 X Range quality 100.0 % Test CRC 6D72E105 Copy CRC 6D72E105 Copy OK

No errors occurred

AccurateRip summary

Track 1 accurately ripped (confidence 2) [B5F2BC56] (AR v2)Track 2 accurately ripped (confidence 2) [37F700FA] (AR v2)Track 3 accurately ripped (confidence 2) [8F3B0762] (AR v2)Track 4 accurately ripped (confidence 2) [EA9174F9] (AR v2)Track 5 accurately ripped (confidence 2) [562AA9F2] (AR v2)Track 6 accurately ripped (confidence 2) [7BD1509E] (AR v2)Track 7 accurately ripped (confidence 2) [927327BA] (AR v2)Track 8 accurately ripped (confidence 2) [5BD373A3] (AR v2)Track 9 accurately ripped (confidence 2) [C487CE5A] (AR v2)Track 10 accurately ripped (confidence 2) [E0588B81] (AR v2)Track 11 accurately ripped (confidence 2) [83EB11CC] (AR v2)

All tracks accurately ripped

End of status report

==== Log checksum 22BCF68C2851103EEC6F9C2CCEDF260074D70932C52C9F926CD6DAAF99353D39 ====
REM GENRE ElectronicREM DATE 1994REM DISCID 8F0B940BREM COMMENT "ExactAudioCopy v1.0b4"PERFORMER "Dino Ninn & Earl Ninn"TITLE "Michael Ninn's Sex "FILE "Dino Ninn & Earl Ninn - Michael Ninn's Sex.flac" WAVE TRACK 01 AUDIO TITLE "Sex - Theme" PERFORMER "Dino Ninn & Earl Ninn" INDEX 00 00:00:00 INDEX 01 00:00:32 TRACK 02 AUDIO TITLE "Stay" PERFORMER "Dino Ninn & Earl Ninn" INDEX 00 02:00:60 INDEX 01 02:03:67 TRACK 03 AUDIO TITLE "Guilt" PERFORMER "Dino Ninn & Earl Ninn" INDEX 00 07:00:52 INDEX 01 07:03:57 TRACK 04 AUDIO TITLE "The Boss" PERFORMER "Dino Ninn & Earl Ninn" INDEX 00 12:00:55 INDEX 01 12:03:45 TRACK 05 AUDIO TITLE "Your Dreams" PERFORMER "Dino Ninn & Earl Ninn" INDEX 00 17:45:30 INDEX 01 17:47:35 TRACK 06 AUDIO TITLE "Sex, Power, Money" PERFORMER "Dino Ninn & Earl Ninn" INDEX 01 20:32:12 TRACK 07 AUDIO TITLE "Pink" PERFORMER "Dino Ninn & Earl Ninn" INDEX 00 24:29:32 INDEX 01 24:32:37 TRACK 08 AUDIO TITLE "A Dream To Flesh (Unplugged)" PERFORMER "Dino Ninn & Earl Ninn" INDEX 00 28:57:07 INDEX 01 28:59:72 TRACK 09 AUDIO TITLE "You Get Nothing" PERFORMER "Dino Ninn & Earl Ninn" INDEX 00 33:00:60 INDEX 01 33:03:60 TRACK 10 AUDIO TITLE "Not, More Than Everything" PERFORMER "Dino Ninn & Earl Ninn" INDEX 00 39:14:50 INDEX 01 39:16:32 TRACK 11 AUDIO TITLE "A Dream To Flesh" PERFORMER "Dino Ninn & Earl Ninn" INDEX 00 44:58:00 INDEX 01 45:01:25


Трекер:  [ 20-Дек-2014 15:00 ]

  

Скачать .torrent

Размер .torrent файла 12 KB


Размер: 280 MB
Хэш (hash) релиза: 948582b1a05b254b8547dbe3498ec619d251638e

Торренты, похожие на Sex скачать торрент

Форум Название Автор Размер S L Добавлен
Электронная музыка (lossless) ·· (EBM, Electro-Gothic) The Fair Sex & The Invincible Spirit - The Invincible Sex (Split EP) - 2004, FLAC (image+.cue), lossless Galfimbul 238986091228 MB 0 0 1509941041

07:04

6-Ноя-17

Rосk | Mеtаl | Аltеrnаtivе, Рunk, Indереndеnt (mр3) ·· (Indie/Dream Pop) Cigarettes After Sex - Cigarettes After Sex - 2017, MP3, 320 kbps Galfimbul 113082600108 MB 0 0 1496200339

06:12

31-Май-17

Саундтреки к фильмам и мультфильмам (mp3) ·· (Soundtrack) Секс в большом городе | Sex And The City | Sex & The City (7CD) [2000-2010, MP3, 320 kbps] Galfimbul 11291693321.05 GB 0 0 1448127963

20:46

21-Ноя-15

Саундтреки к фильмам и мультфильмам (mp3) ·· [Soundtrak / Unofficial] Секс в большом городе (Сезоны 1-6) / Sex & The City / Sex And The City (Seasons 1-6) [1998-2010, MP3, 320 kbps] ОБНОВЛЕНИЕ 21.02.2015 Galfimbul 36443732713.39 GB 0 0 1425977511

11:51

10-Мар-15

Саундтреки к фильмам и мультфильмам (mp3) ·· (Soundtrack) Секс в большом городе / Sex And The City / Sex & The City (3CD) [2008-2010, MP3, 320 kbps] Galfimbul 453232097432 MB 0 0 1425918299

19:24

9-Мар-15

Саундтреки к фильмам и мультфильмам (mp3) ·· [Soundtrak / Unofficial] Секс в большом городе (Сезоны 1-3) / Sex & The City / Sex And The City (Seasons 1-3) [1998-2010, MP3, 320 kbps] Galfimbul 10705014251021 MB 0 0 1424272946

18:22

18-Фев-15

Саундтреки к фильмам и мультфильмам (mp3) ·· (Score) Секс в большом городe / Sex And The City / Sex & The City (Aaron Zigman, Bob Christianson, Rob Mounsey & VA) (15CD) [2002-2014, MP3, 128/320 kbps] Galfimbul 14777182871.38 GB 0 0 1423302751

12:52

7-Фев-15

Электронная музыка (video) ·· Paul Oakenfold Feat. Pharrell Williams - Sex 'N' Money (Sex And Money) [2006 г., House, Trance, DVD] Galfimbul 234825728224 MB 0 0 1362473855

11:57

5-Мар-13

Rосk | Mеtаl | Аltеrnаtivе, Рunk, Indереndеnt (mр3) ·· (Punk-Rock) SEX - SEX - 2012, MP3, 320 kbps L 8701417483 MB 0 0 1336118340

10:59

4-Май-12

Rосk | Mеtаl | Аltеrnаtivе, Рunk, Indереndеnt (mр3) ·· (electronic rock/electro punk) Отмороженная Нэнси - For Horny Sex - 2017, MP3, 320 kbps Galfimbul 8735555383 MB 0 0 1511924797

06:06

29-Ноя-17

Rосk | Mеtаl | Аltеrnаtivе, Рunk, Indереndеnt (mр3) ·· (Metalcore/ Hardcore) Texas Is On Fire - Take Your Sex Elsewhere Girl, I'm Trying To Dance - 2006, MP3 (tracks), 192 kbps Galfimbul 2199144421 MB 0 0 1507349217

07:06

7-Окт-17

Rосk | Mеtаl | Аltеrnаtivе, Рunk, Indереndеnt (mр3) ·· (Gothic Rock, Deathrock, Post-Punk, Industrial) Alien Sex Fiend - Дискография 1983-2017 (31 релиз), MP3, 128-320 kbps Galfimbul 38115406573.55 GB 0 0 1506717701

23:41

29-Сен-17

Rосk | Mеtаl | Аltеrnаtivе, Рunk, Indереndеnt (mр3) ·· (Goth Rock, Industrial, Post-Punk, Deathrock) Alien Sex Fiend - Fiendology: 35 Year Trip Through Fiendish History - 2017, MP3, 320 kbps Galfimbul 516099154492 MB 0 0 1504559345

00:09

5-Сен-17

Rосk | Mеtаl | Аltеrnаtivе, Рunk, Indереndеnt (mр3) ·· (Stoner/ Heavy Rock) Joe Kowalski & The Sex Detectives - Tripping on Ego - 2016, MP3, 320 kbps Galfimbul 8557397682 MB 0 0 1503256257

22:10

20-Авг-17

Электронная музыка (mp3) ·· [Downtempo, Chillout, Lounge] VA - Sax for Sex - Christmas Edition (Sensual Smooth Jazzy Sax Lounge Music for Massage or Love Making) (2014) [MP3, 320 kbps, CBR] Galfimbul 206321063197 MB 0 0 1501129960

07:32

27-Июл-17

Электронная музыка (mp3) ·· [Downtempo, Chillout, Lounge] VA - Sax for Sex Vol. 3 (Sensual Smooth Jazzy Sax Lounge Music for Massage or Love Making) (2014) [MP3, 320 kbps, CBR] Galfimbul 238773986228 MB 0 0 1501129958

07:32

27-Июл-17

Электронная музыка (mp3) ·· (Electronic/Dark Wave/Disco Noir) Jessica Vale - Jessica Vale Presents The Sex Album - 2005, MP3 (tracks), VBR 192-224 kbps Galfimbul 9646052892 MB 0 0 1497774800

11:33

18-Июн-17

Электронная музыка (mp3) ·· (Synthpop, Minimal Synth, EBM) 2 релиза-Synths Versus Me - Regrets (feat. Blind Delon) (EP),Sex / Body / Touch - 2017, MP3, 320 kbps Galfimbul 230182481220 MB 0 0 1495896782

17:53

27-Май-17

Саундтреки к фильмам и мультфильмам (lossless) ·· (OST) Секс в большом городе (кинофильм) / Sex and the City : Vol. 1 & 2 — Various — 2008, FLAC (tracks+.cue), lossless Galfimbul 841765356803 MB 0 0 1495463146

17:25

22-Май-17

Еще никто не оставлял запись к записи скачать торрент Sex . Будь первым!

!Обратная связь