Скачать через торрент музыку Убить священника To Kill a Priest бесплатно без регистрации torrent

Если у вас наблюдаются проблемы со скриншотами, переходом по ссылками, скачиванием торрентов - проблемы в блокировщике рекламы AdBlock. #хорошегоДня!


Статистика раздачи
Размер:  431 MB   |    Зарегистрирован:  2 года 11 месяцев   |    .torrent скачан:  46 раз   |   
Раздают:  1  
   
Загрузка...
 
Автор Сообщение

Galfimbul

avatar Galfimbul



Убить священника / To Kill a Priest
Composed and Conducted by Georges Delerue
Limited Edition of 1000 Copies

Жанр: Score | Дата выпуска: 3 декабря 2014
Издатель (лейбл): Music Box Records | Номер по каталогу: MBR-057
Аудиокодек: FLAC | Тип рипа: image+.cue | Битрейт аудио: lossless
Общая продолжительность: 47:59
Источник: Рип оригинального диска из личной коллекции
01. The Crimes of Cain (Main Title) [2:46]
02. Suicide or State of War [1:47]
03. The Gallows [1:44]
04. Confession [0:55]
05. The Crimes of Cain (Guitar Solo) [1:22]
06. Love After Murder [1:23]
07. Anna and Alek [1:48]
08. Stefan and the Militiamen [1:20]
09. Popc is Dead [1:13]
10. Sacrilege [1:29]
11. Alek Leaves the Bishop's Palace [1:05]
12. Alek's Presence [1:56]
13. Secret Believer [1:08]
14. Kiss Me [1:46]
15. Flashing Lights [2:24]
16. Meditation [1:10]
17. Body Recovered [1:38]
18. Joseph's Escape [1:38]
19. Police Control [1:24]
20. The Murder [1:26]
21. Candles [1:54]
22. Funeral Arrangements [1:01]
23. The Crimes of Cain (End Title) [3:21]
24. Waltz #1 [2:09]
25. Polka [1:37]
26. Mazurka [1:35]
27. Waltz #2 [1:56]
28. The Crimes of Cain (Vocals Only) [1:53]
Exact Audio Copy V1.0 beta 3 from 29. August 2011

EAC extraction logfile from 22. December 2014, 12:34

Georges Delerue / To Kill a Priest

Used drive : TSSTcorpCDDVDW TS-L633C Adapter: 2 ID: 0

Read mode : SecureUtilize accurate stream : YesDefeat audio cache : YesMake use of C2 pointers : No

Read offset correction : 6Overread into Lead-In and Lead-Out : NoFill up missing offset samples with silence : YesDelete leading and trailing silent blocks : NoNull samples used in CRC calculations : YesUsed interface : Native Win32 interface for Win NT & 2000

Used output format : Internal WAV RoutinesSample format : 44.100 Hz; 16 Bit; Stereo

TOC of the extracted CD

Track | Start | Length | Start sector | End sector --------------------------------------------------------- 1 | 0:00.00 | 2:48.68 | 0 | 12667 2 | 2:48.68 | 1:49.14 | 12668 | 20856 3 | 4:38.07 | 1:46.38 | 20857 | 28844 4 | 6:24.45 | 0:57.13 | 28845 | 33132 5 | 7:21.58 | 1:24.45 | 33133 | 39477 6 | 8:46.28 | 1:25.26 | 39478 | 45878 7 | 10:11.54 | 1:50.71 | 45879 | 54199 8 | 12:02.50 | 1:22.48 | 54200 | 60397 9 | 13:25.23 | 1:15.57 | 60398 | 66079 10 | 14:41.05 | 1:31.57 | 66080 | 72961 11 | 16:12.62 | 1:07.24 | 72962 | 78010 12 | 17:20.11 | 1:58.61 | 78011 | 86921 13 | 19:18.72 | 1:10.37 | 86922 | 92208 14 | 20:29.34 | 1:48.23 | 92209 | 100331 15 | 22:17.57 | 2:26.53 | 100332 | 111334 16 | 24:44.35 | 1:12.40 | 111335 | 116774 17 | 25:57.00 | 1:40.29 | 116775 | 124303 18 | 27:37.29 | 1:40.27 | 124304 | 131830 19 | 29:17.56 | 1:26.55 | 131831 | 138335 20 | 30:44.36 | 1:28.65 | 138336 | 145000 21 | 32:13.26 | 1:56.10 | 145001 | 153710 22 | 34:09.36 | 1:03.21 | 153711 | 158456 23 | 35:12.57 | 3:25.12 | 158457 | 173843 24 | 38:37.69 | 2:11.02 | 173844 | 183670 25 | 40:48.71 | 1:39.49 | 183671 | 191144 26 | 42:28.45 | 1:37.18 | 191145 | 198437 27 | 44:05.63 | 1:58.39 | 198438 | 207326 28 | 46:04.27 | 1:53.37 | 207327 | 215838

Range status and errors

Selected range

Filename H:\Georges Delerue - CD Collection [by italia57]\Georges Delerue (1988) To Kill a Priest\Georges Delerue - To Kill a Priest (MBR-057).wav

Peak level 76.0 % Extraction speed 3.5 X Range quality 100.0 % Test CRC B6378A01 Copy CRC B6378A01 Copy OK

No errors occurred

AccurateRip summary

Track 1 not present in databaseTrack 2 not present in databaseTrack 3 not present in databaseTrack 4 not present in databaseTrack 5 not present in databaseTrack 6 not present in databaseTrack 7 not present in databaseTrack 8 not present in databaseTrack 9 not present in databaseTrack 10 not present in databaseTrack 11 not present in databaseTrack 12 not present in databaseTrack 13 not present in databaseTrack 14 not present in databaseTrack 15 not present in databaseTrack 16 not present in databaseTrack 17 not present in databaseTrack 18 not present in databaseTrack 19 not present in databaseTrack 20 not present in databaseTrack 21 not present in databaseTrack 22 not present in databaseTrack 23 not present in databaseTrack 24 not present in databaseTrack 25 not present in databaseTrack 26 not present in databaseTrack 27 not present in databaseTrack 28 not present in database

None of the tracks are present in the AccurateRip database

End of status report

---- CUETools DB Plugin V2.1.4

[CTDB TOCID: VDCv2EOtZNKuq.xuPiHnKUwpt3Y-] foundSubmit result: VDCv2EOtZNKuq.xuPiHnKUwpt3Y- has been confirmedTrack | CTDB Status 1 | (3/3) Accurately ripped 2 | (3/3) Accurately ripped 3 | (3/3) Accurately ripped 4 | (3/3) Accurately ripped 5 | (3/3) Accurately ripped 6 | (3/3) Accurately ripped 7 | (3/3) Accurately ripped 8 | (3/3) Accurately ripped 9 | (3/3) Accurately ripped 10 | (3/3) Accurately ripped 11 | (3/3) Accurately ripped 12 | (3/3) Accurately ripped 13 | (3/3) Accurately ripped 14 | (3/3) Accurately ripped 15 | (3/3) Accurately ripped 16 | (3/3) Accurately ripped 17 | (3/3) Accurately ripped 18 | (3/3) Accurately ripped 19 | (3/3) Accurately ripped 20 | (3/3) Accurately ripped 21 | (3/3) Accurately ripped 22 | (3/3) Accurately ripped 23 | (3/3) Accurately ripped 24 | (3/3) Accurately ripped 25 | (3/3) Accurately ripped 26 | (3/3) Accurately ripped 27 | (3/3) Accurately ripped 28 | (3/3) Accurately ripped

==== Log checksum 7979570A28316649A81D2BE751105EB241CC511EF1EC1F6D4B431EE837BC7B31 ====
REM GENRE SoundtrackREM DATE 1988REM DISCID 880B3D1CREM COMMENT "ExactAudioCopy v1.0b3"PERFORMER "Georges Delerue"TITLE "To Kill a Priest"FILE "Georges Delerue - To Kill a Priest (MBR-057).flac" WAVE TRACK 01 AUDIO TITLE "The Crimes Of Cain (Main Title) [Feat. Joan Baez]" PERFORMER "Georges Delerue" INDEX 01 00:00:00 TRACK 02 AUDIO TITLE "Suicide Or State Of War" PERFORMER "Georges Delerue" INDEX 00 02:46:68 INDEX 01 02:48:68 TRACK 03 AUDIO TITLE "The Gallows" PERFORMER "Georges Delerue" INDEX 00 04:36:07 INDEX 01 04:38:07 TRACK 04 AUDIO TITLE "Confession" PERFORMER "Georges Delerue" INDEX 00 06:22:45 INDEX 01 06:24:45 TRACK 05 AUDIO TITLE "The Crimes Of Cain (Guitar Solo)" PERFORMER "Georges Delerue" INDEX 00 07:19:58 INDEX 01 07:21:58 TRACK 06 AUDIO TITLE "Love After Murder" PERFORMER "Georges Delerue" INDEX 00 08:44:28 INDEX 01 08:46:28 TRACK 07 AUDIO TITLE "Anna And Alek" PERFORMER "Georges Delerue" INDEX 00 10:09:54 INDEX 01 10:11:54 TRACK 08 AUDIO TITLE "Stefan And The Militiamen" PERFORMER "Georges Delerue" INDEX 00 12:00:50 INDEX 01 12:02:50 TRACK 09 AUDIO TITLE "Popc Is Dead" PERFORMER "Georges Delerue" INDEX 00 13:23:23 INDEX 01 13:25:23 TRACK 10 AUDIO TITLE "Sacrilege" PERFORMER "Georges Delerue" INDEX 00 14:39:05 INDEX 01 14:41:05 TRACK 11 AUDIO TITLE "Alek Leaves The Bishop's Palace" PERFORMER "Georges Delerue" INDEX 00 16:10:62 INDEX 01 16:12:62 TRACK 12 AUDIO TITLE "Alek's Presence" PERFORMER "Georges Delerue" INDEX 00 17:18:11 INDEX 01 17:20:11 TRACK 13 AUDIO TITLE "Secret Believer" PERFORMER "Georges Delerue" INDEX 00 19:16:72 INDEX 01 19:18:72 TRACK 14 AUDIO TITLE "Kiss Me" PERFORMER "Georges Delerue" INDEX 00 20:27:34 INDEX 01 20:29:34 TRACK 15 AUDIO TITLE "Flashing Lights" PERFORMER "Georges Delerue" INDEX 00 22:15:57 INDEX 01 22:17:57 TRACK 16 AUDIO TITLE "Meditation" PERFORMER "Georges Delerue" INDEX 00 24:42:35 INDEX 01 24:44:35 TRACK 17 AUDIO TITLE "Body Recovered" PERFORMER "Georges Delerue" INDEX 00 25:55:00 INDEX 01 25:57:00 TRACK 18 AUDIO TITLE "Joseph's Escape" PERFORMER "Georges Delerue" INDEX 00 27:35:29 INDEX 01 27:37:29 TRACK 19 AUDIO TITLE "Police Control" PERFORMER "Georges Delerue" INDEX 00 29:15:56 INDEX 01 29:17:56 TRACK 20 AUDIO TITLE "The Murder" PERFORMER "Georges Delerue" INDEX 00 30:42:36 INDEX 01 30:44:36 TRACK 21 AUDIO TITLE "Candles" PERFORMER "Georges Delerue" INDEX 00 32:11:26 INDEX 01 32:13:26 TRACK 22 AUDIO TITLE "Funeral Arrangements" PERFORMER "Georges Delerue" INDEX 00 34:07:36 INDEX 01 34:09:36 TRACK 23 AUDIO TITLE "The Crimes Of Cain (End Title) [Feat. Joan Baez]" PERFORMER "Georges Delerue" INDEX 00 35:10:57 INDEX 01 35:12:57 TRACK 24 AUDIO TITLE "Waltz #1" PERFORMER "Georges Delerue" INDEX 00 38:33:69 INDEX 01 38:37:69 TRACK 25 AUDIO TITLE "Polka" PERFORMER "Georges Delerue" INDEX 00 40:46:71 INDEX 01 40:48:71 TRACK 26 AUDIO TITLE "Mazurka" PERFORMER "Georges Delerue" INDEX 00 42:26:45 INDEX 01 42:28:45 TRACK 27 AUDIO TITLE "Waltz #2" PERFORMER "Georges Delerue" INDEX 00 44:03:63 INDEX 01 44:05:63 TRACK 28 AUDIO TITLE "The Crimes Of Cain (Vocals Only)" PERFORMER "Georges Delerue" INDEX 00 46:02:27 INDEX 01 46:04:27


Трекер:  [ 22-Дек-2014 16:00 ]

  

Скачать .torrent

Размер .torrent файла 18 KB


Размер: 431 MB
Хэш (hash) релиза: 4b692b7397741fe7d6e844751cb53c765862cc59

Еще никто не оставлял запись к записи скачать торрент Убить священника To Kill a Priest . Будь первым!

!Обратная связь