Скачать через торрент Крошить-кромсать Kill la Kill бесплатно Аниме Все серии на русском torrent

Если у вас наблюдаются проблемы со скриншотами, переходом по ссылками, скачиванием торрентов - проблемы в блокировщике рекламы AdBlock. #хорошегоДня!


Статистика раздачи
Размер:  1.17 GB   |    Зарегистрирован:  2 года 11 месяцев   |    .torrent скачан:  56 раз   |   
Раздают:  1  
   
Загрузка...
 
Автор Сообщение

Galfimbul

avatar Galfimbul


Крошить-кромсать / Kill la Kill

Страна: Япония
Год выпуска: 2014 г.
Жанр: экшен, фэнтези, школа, сёнэн
Тип: OVA
Продолжительность: 27 мин.

Режиссер: Имайси Хироюки
Студия: Trigger

Описание: Действие ОВА происходит через две недели после действий TV сериала. После того, как академия была уничтожена, на её руинах происходит товарищеский матч, который имеет непредсказуемые последствия.

Качество: BDRip
Тип релиза: Без хардсаба
Формат видео: MP4
Наличие линковки: Нет
Релиз/Автор рипа: Ohys-Raws
Видео: H264, 1280x720, 572 kbps, 23.976 fps, 8 bit
Аудио 1: AAC, 223 kbps, 48000 Hz, stereo Язык Японский
Аудио 2: AAC, 192 kbps, 48000 Hz, stereo Язык Японский
Субтитры: ass, внешние Язык субтитров: русский ; Переводчик: Dotonbori Roma, Редактор: Voltage Guy

Не забываем "благодарить" и писать комментарии. Это стимулирует дальнейшие раздачи.
General
Complete name                    : F:\anime\Kill La Kill [TV]\Kill la Kill OVA\[Ohys-Raws] Kill La Kill - 25 OVA (BD 1280x720 x264 AACx2).mp4
Format                           : MPEG-4
Format profile                   : Base Media
Codec ID                         : isom
File size                        : 1.17 GiB
Duration                         : 27mn 18s
Overall bit rate                 : 6 143 Kbps
Encoded date                     : UTC 2014-09-04 10:25:30
Tagged date                      : UTC 2014-09-04 10:25:30

Video
ID                               : 1
Format                           : AVC
Format/Info                      : Advanced Video Codec
Format profile                   : Main@L4.1
Format settings, CABAC           : Yes
Format settings, ReFrames        : 4 frames
Codec ID                         : avc1
Codec ID/Info                    : Advanced Video Coding
Duration                         : 27mn 18s
Bit rate                         : 5 724 Kbps
Maximum bit rate                 : 25.6 Mbps
Width                            : 1 280 pixels
Height                           : 720 pixels
Display aspect ratio             : 16:9
Frame rate mode                  : Constant
Frame rate                       : 23.976 fps
Color space                      : YUV
Chroma subsampling               : 4:2:0
Bit depth                        : 8 bits
Scan type                        : Progressive
Bits/(Pixel*Frame)               : 0.259
Stream size                      : 1.09 GiB (93%)
Writing library                  : x264 core 142 r2453 ea0ca51
Encoding settings                : cabac=1 / ref=3 / deblock=1:0:0 / analyse=0x1:0x111 / me=umh / subme=9 / psy=1 / psy_rd=1.00:0.00 / mixed_ref=1 / me_range=32 / chroma_me=1 / trellis=1 / 8x8dct=0 / cqm=0 / deadzone=21,11 / fast_pskip=1 / chroma_qp_offset=-2 / threads=8 / lookahead_threads=1 / sliced_threads=0 / nr=0 / decimate=1 / interlaced=0 / bluray_compat=0 / constrained_intra=0 / bframes=16 / b_pyramid=2 / b_adapt=1 / b_bias=0 / direct=1 / weightb=1 / open_gop=0 / weightp=2 / keyint=240 / keyint_min=1 / scenecut=40 / intra_refresh=0 / rc_lookahead=40 / rc=crf / mbtree=1 / crf=17.0 / qcomp=0.60 / qpmin=0 / qpmax=69 / qpstep=4 / ip_ratio=1.40 / aq=1:1.00
Encoded date                     : UTC 2014-09-04 10:25:30
Tagged date                      : UTC 2014-09-04 10:25:36

Audio #1
ID                               : 2
Format                           : AAC
Format/Info                      : Advanced Audio Codec
Format profile                   : LC
Codec ID                         : 40
Duration                         : 27mn 18s
Bit rate mode                    : Variable
Bit rate                         : 223 Kbps
Maximum bit rate                 : 273 Kbps
Channel(s)                       : 2 channels
Channel positions                : Front: L R
Sampling rate                    : 48.0 KHz
Compression mode                 : Lossy
Stream size                      : 43.5 MiB (4%)
Language                         : Japanese
Encoded date                     : UTC 2014-09-04 10:20:26
Tagged date                      : UTC 2014-09-04 10:25:36

Audio #2
ID                               : 3
Format                           : AAC
Format/Info                      : Advanced Audio Codec
Format profile                   : LC
Codec ID                         : 40
Duration                         : 27mn 18s
Bit rate mode                    : Variable
Bit rate                         : 192 Kbps
Maximum bit rate                 : 245 Kbps
Channel(s)                       : 2 channels
Channel positions                : Front: L R
Sampling rate                    : 48.0 KHz
Compression mode                 : Lossy
Stream size                      : 37.2 MiB (3%)
Language                         : Japanese
Encoded date                     : UTC 2014-09-04 10:24:50
Tagged date                      : UTC 2014-09-04 10:25:36
OVA - Goodbye Once Again


Трекер:  [ 23-Дек-2014 07:30 ]

  

Скачать .torrent

Размер .torrent файла 12 KB


Размер: 1.17 GB
Хэш (hash) релиза: 38ae6f6f76902842c44bd3fd10fb337f31ff1186
Подписка на обновления:

Торренты, похожие на Крошить-кромсать Kill la Kill скачать торрент

Форум Название Автор Размер S L Добавлен
Аниме | HD Rips ·· Крошить-кромсать / Kill la Kill (Имайси Хироюки) [TV+Special] [24+0 из 24+1] [без хардсаба] [RUS(ext), JAP+SUB] [2013 г., комедия, этти, BDRemux] [1080p] Galfimbul 182046819929169.54 GB 0 0 1415311625

01:07

7-Ноя-14

Аниме | HD Rips ·· Крошить-кромсать / Kill la Kill (Имайси Хироюки) [TV+Special] [без хардсаба] [24+0 из 24+1] [JAP+SUB] & [24+1 из 24+1] [RUS(ext)] [2013 г., комедия, фэнтези, этти, BDRip] [720p] Galfimbul 3413803859231.79 GB 0 0 1410035464

23:31

6-Сен-14

Аниме | Rips ·· Крошить-кромсать / Kill la Kill (Имайси Хироюки) [TV] [24 из 24] [без хардсаба] [RUS(ext), JAP+SUB] [2013 г., комедия, фэнтези, этти, BDRip] [720p] Galfimbul 2637249378524.56 GB 0 0 1410028284

21:31

6-Сен-14

Аниме | HD Rips ·· Крошить-кромсать / Kill la Kill [TV] [1-22 из 24] [Без хардсаба] [RUS(int), JAP+SUB] [2013 г., приключения, школа, HDTVRip] [720p] Polarnik 106379260459.91 GB 0 0 1397292856

11:54

12-Апр-14

Аниме | HD Rips ·· Крошить-кромсать / Kill la Kill [TV] [1-6 из XX] [Без хардсаба] [RUS(int), JAP+SUB] [2013 г., приключения, HDTVRip] [720p] Polarnik 30900008042.88 GB 0 0 1381870206

23:50

15-Окт-13

Аниме | HD Rips ·· Крошить-кромсать / Kill la Kill [TV] [Без хардсаба] [18 из 24] [RUS(int), JAP+SUB] [2013 г., приключения, школа, WEBRip] [720p] Galfimbul 69167407366.44 GB 0 0 1381696599

23:36

13-Окт-13

Аниме | HD Rips ·· Крошить-кромсать / Убить или быть убитым / Kill la Kill / Kiru ra Kiru (Имайси Хироюки) [TV] [01-18 из 24] [без хардсаба] [RUS(int), JAP+SUB] [2013 г., экшен, фэнтези, школа, сёнэн WEBRip] [720p] Polarnik 69147682346.44 GB 0 0 1383773080

00:24

7-Ноя-13

Еще никто не оставлял запись к записи скачать торрент Крошить-кромсать Kill la Kill . Будь первым!

!Обратная связь