Скачать через торрент Изгнанные из Рая Rakuen Tsuihou Expelled from Paradise бесплатно Аниме Все серии на русском torrent

Если у вас наблюдаются проблемы со скриншотами, переходом по ссылками, скачиванием торрентов - проблемы в блокировщике рекламы AdBlock. #хорошегоДня!


Статистика раздачи
Размер:  2.14 GB   |    Зарегистрирован:  2 года 11 месяцев   |    .torrent скачан:  63 раза   |   
Раздают:  1  
   
Загрузка...
 
Автор Сообщение

Galfimbul

avatar Galfimbul


Изгнанные из Рая / Rakuen Tsuihou Expelled from Paradise

Страна: Япония
Год выпуска: 2014 г.
Жанр: приключения
Тип: Movie
Продолжительность: 105 мин.
Режиссер: Мизушима Сейджи
Сценарий: Уробучи Ген
Студия: Toei Animation, Nitroplus, Aniplex, Graphinica

Описание: Земля, далёкое будущее. Главная героиня Анджела покидает кибер-мир, где ныне обитает подавляющее большинство людей. Из мира, где главное и практически единственное значение имеет разум, она приходит в реальность, где и физическая подготовка чего-нибудь да стоит. К тому же у неё есть Ахан – броня, которая должна помочь Анджеле выжить.

Качество: BDRip
Тип релиза: Без хардсаба
Формат видео: MP4
Наличие линковки: Нет
Релиз/Автор рипа: SEED
Видео: H264, 1280x720, 8bits, 2337kbps, 23.976fps
Аудио: AAC, 2ch, 162kbps, 48kHz Язык Японский
Аудио2: AAC, 5.1ch, 450kbps, 48kHz Язык Японский
Субтитры: ass, отдельным файлом Язык субтитров русский ; Перевод: Ytterby von Einzbern
Перевод: kvaking ; Редактор: ElSwanko (nnm-club)
Format : MPEG-4Format profile : Base Media / Version 2Codec ID : mp42File size : 2.14 GiBDuration : 1h 43mnOverall bit rate mode : VariableOverall bit rate : 2 954 Kbps

VideoID : 1Format : AVCFormat/Info : Advanced Video CodecFormat profile : High@L4.0Format settings, CABAC : YesFormat settings, ReFrames : 6 framesCodec ID : avc1Codec ID/Info : Advanced Video CodingDuration : 1h 43mnBit rate : 2 337 KbpsMaximum bit rate : 21.8 MbpsWidth : 1 280 pixelsHeight : 720 pixelsDisplay aspect ratio : 16:9Frame rate mode : ConstantFrame rate : 23.976 fpsColor space : YUVChroma subsampling : 4:2:0Bit depth : 8 bitsScan type : ProgressiveBits/(Pixel*Frame) : 0.106Stream size : 1.69 GiB (79%)Title : Video

Audio #1ID : 2Format : AACFormat/Info : Advanced Audio CodecFormat profile : LCCodec ID : 40Duration : 1h 43mnBit rate mode : VariableBit rate : 162 KbpsMaximum bit rate : 242 KbpsChannel count : 2 channelsChannel positions : Front: L RSampling rate : 48.0 KHzCompression mode : LossyDelay relative to video : 83msStream size : 120 MiB (5%)Title : Audio

Audio #2ID : 3Format : AACFormat/Info : Advanced Audio CodecFormat profile : LCCodec ID : 40Duration : 1h 43mnBit rate mode : VariableBit rate : 450 KbpsMaximum bit rate : 598 KbpsChannel count : 6 channelsChannel positions : Front: L C R, Side: L R, LFESampling rate : 48.0 KHzCompression mode : LossyDelay relative to video : 83msStream size : 334 MiB (15%)Title : Audio


Трекер:  [ 30-Дек-2014 16:00 ]

  

Скачать .torrent

Размер .torrent файла 11 KB


Размер: 2.14 GB
Хэш (hash) релиза: 1a74541e75086134d6dcde1870c5ccc4a6b28370
Подписка на обновления:

Торренты, похожие на Изгнанные из Рая Rakuen Tsuihou Expelled from Paradise скачать торрент

Форум Название Автор Размер S L Добавлен
Аниме | HD Rips ·· Изгнанные из Рая / Rakuen Tsuihou: Expelled from Paradise [Movie] [Без хардсаба] [JAP, SUB] [2014, приключения, фантастика, меха, BDRip] [1080p] Galfimbul 1168804349310.89 GB 0 0 1479582465

22:07

19-Ноя-16

Аниме | Rips ·· Изгнанные из Рая / Rakuen Tsuihou Expelled from Paradise [Movie] [Без хардсаба] [RUS(int), JAP+SUB] [2014 г., Экшен, меха, фантастика, BDRip] [720p] Galfimbul 19971753741.86 GB 0 0 1425160049

00:47

1-Мар-15

Аниме | Rips ·· Изгнанные из Рая / Rakuen Tsuihou: Expelled from Paradise [Movie] [Без хардсаба] [RUS(int), JAP+SUB] [2014 г., приключения, фантастика, меха, BDRip] [HWP] Galfimbul 18265303131.7 GB 0 0 1424697415

16:16

23-Фев-15

Аниме | HD Rips ·· Изгнанные из Рая / Rakuen Tsuihou: Expelled from Paradise [Movie] [Без хардсаба] [RUS(int), JAP] [2014 г., приключения, BDRip] [1080p] Galfimbul 96625193129 GB 0 0 1420294395

17:13

3-Янв-15

Аниме | HD Rips ·· Изгнанные из Рая / Rakuen Tsuihou: Expelled from Paradise [Movie] [Без хардсаба] [RUS(int), JAP] [2014 г., Приключения, BDRip] [720p] Galfimbul 16614951871.55 GB 0 0 1419875139

20:45

29-Дек-14

Еще никто не оставлял запись к записи скачать торрент Изгнанные из Рая Rakuen Tsuihou Expelled from Paradise . Будь первым!

!Обратная связь