Скачать через торрент Прекрасный библиотекарь Daitoshokan no Hitsujikai бесплатно Аниме Все серии на русском torrent

Если у вас наблюдаются проблемы со скриншотами, переходом по ссылками, скачиванием торрентов - проблемы в блокировщике рекламы AdBlock. #хорошегоДня!


Статистика раздачи
Размер:  1.36 GB   |    Зарегистрирован:  2 года 11 месяцев   |    .torrent скачан:  37 раз   |   
Раздают:  1  
   
Загрузка...
 
Автор Сообщение

Galfimbul

avatar Galfimbul



Год выпуска: 2014
Страна: Япония
Жанр: комедия, романтика
Продолжительность: ТВ, 12 эп. по 25 мин.
Выпуск: c 09.10.2014 по 25.12.2014
Перевод:
<ol class="post-ul">
русские субтитры от Gerale & Komugi-chan (полные/вспомогательные)
</ol>
Режиссер: Нобута Ю
Студия: Hoods Entertainment & Felix Film
Описание:
17-летний Кётаро Какэй искренне верит, что несовершенство мира можно победить, если не грешить самому и познать все на свете. Именно для этого он учится в огромной академии Сиоми, где собираются юные таланты со всей Японии. А вот ровесница Какэя, скромная и застенчивая Цугуми Сирасаки, считает, что достичь счастья можно, лишь помогая другим, пускай придется ломать собственный характер. Такие интересные ребята не могли не встретиться – ведь Судьба существует, а помогают ей таинственные Пастыри, что, по легендам, базируются где-то в библиотеке академии.

Пастыри не правят людьми, а дают советы, которым, однако, лучше следовать. На дворе – новое время, и общаются они с избранниками как через старомодные видения, так и путем современной электронной почты. В общем, начинания главных героев, собравших своих друзей в новый библиотечный клуб, были поддержаны свыше. С такими покровителями не страшна даже президент Совета Махо Мотидзуки, у которой, похоже, свои виды на красавчика Кётаро. Одно другому не мешает, главное – не потерять чудесную закладку, что когда-то вручил Какэю незнакомец в шляпе!
© Hollow, World Art

Японское название сериала дословно переводится как «Пастырь из большой библиотеки». Разумеется, авторы имели в виду библейскую притчу о Добром Пастыре, т. е. Христе, которая нагляднее всего представлена в Евангелии от Иоанна (Ин. 10:11-16): «Я есмь пастырь добрый, и знаю Моих, и Мои знают Меня… и будет одно стадо и один Пастырь».
Информационные ссылки: AniDB || World Art || MAL
Качество: BDRip
Энкод: Winter - RG Pantheon
Тип видео: без хардсаба, без линковки
Формат: mkv
Видео: x264 (Hi10p), 1280x720, ~3200 Kbps, 23.976 fps
Аудио JAP: Vorbis, 48000Hz, ~256 Kbps, 2ch
Аудио RUS 1: AC3, 48000Hz, ~192 Kbps, 2ch (внешними файлами)
<ol class="post-ul">
двухголосая (муж./жен.) от FruKt & Гамлетка Цезаревна (AniDub)
</ol>
01. Formation of the Library Club
02. Lost and Found
[url]...4842806[/url]
- BDRip
Общее
Уникальный идентификатор : 235151160795834856994225910368603857721 (0xB0E877591B562F0ABDC74FC1DAFDE339)
Полное имя : Z:\Anime\720p\Daitoshokan no Hitsujikai [BD] [720p]\[Winter] Daitoshokan no Hitsujikai 02 [BDrip 1280x720 x264 Vorbis].mkv
Формат : Matroska
Версия формата : Version 2
Размер файла : 596 Мбайт
Продолжительность : 23 м.
Режим общего битрейта : Переменный
Общий поток : 3499 Кбит/сек
Дата кодирования : UTC 2015-01-01 07:50:21
Программа кодирования : mkvmerge v2.9.8 ('C'est le bon') built on Aug 13 2009 12:49:06
Библиотека кодирования : libebml v0.7.7 + libmatroska v0.8.1

Видео
Идентификатор : 1
Формат : AVC
Формат/Информация : Advanced Video Codec
Профиль формата : High 10@L4.1
Параметр CABAC формата : Да
Параметр ReFrames формата : 9 кадров
Идентификатор кодека : V_MPEG4/ISO/AVC
Продолжительность : 23 м.
Битрейт : 3173 Кбит/сек
Ширина : 1280 пикселей
Высота : 720 пикселей
Соотношение сторон : 16:9
Режим частоты кадров : Постоянный
Частота кадров : 23,976 кадра/сек
Цветовое пространство : YUV
Субдискретизация насыщенности : 4:2:0
Битовая глубина : 10 бит
Тип развёртки : Прогрессивная
Бит/(Пиксели*Кадры) : 0.144
Размер потока : 541 Мбайт (91%)
Библиотека кодирования : x264 core 132 r2309 3b1f1f7
Настройки программы : cabac=1 / ref=9 / deblock=1:-2:-2 / analyse=0x3:0x133 / me=umh / subme=9 / psy=1 / psy_rd=0.90:0.00 / mixed_ref=1 / me_range=24 / chroma_me=1 / trellis=2 / 8x8dct=1 / cqm=0 / deadzone=21,11 / fast_pskip=1 / chroma_qp_offset=-2 / threads=12 / lookahead_threads=2 / sliced_threads=0 / nr=0 / decimate=0 / interlaced=0 / bluray_compat=0 / constrained_intra=0 / bframes=8 / b_pyramid=2 / b_adapt=2 / b_bias=0 / direct=1 / weightb=1 / open_gop=0 / weightp=2 / keyint=250 / keyint_min=23 / scenecut=40 / intra_refresh=0 / rc=crf / mbtree=0 / crf=15.7 / qcomp=0.70 / qpmin=9 / qpmax=40 / qpstep=4 / ip_ratio=1.40 / pb_ratio=1.30 / aq=1:0.90
Default : Нет
Forced : Нет

Аудио
Идентификатор : 2
Формат : Vorbis
Параметр Floor формата : 1
Идентификатор кодека : A_VORBIS
Продолжительность : 23 м.
Вид битрейта : Переменный
Битрейт : 256 Кбит/сек
Каналы : 2 канала
Частота : 48,0 КГц
Метод сжатия : С потерями
Размер потока : 43,6 Мбайт (7%)
Библиотека кодирования : libVorbis (Schaufenugget) (20101101 (Schaufenugget))
Язык : Japanese
Default : Да
Forced : Нет


<ol class="post-ul">
Выбор видео, перевода, озвучки, а также типа сборки материала осуществляется релизером и не подлежит обсуждению. Если вы считаете, что раздаваемый материал противоречит правилам раздела "Аниме" rutracker.org, сообщите об этом одному из модераторов раздела.

В случае появления нового материала или же лучшего по качеству материала релизер оставляет за собой право обновить раздачу. В этом случае вам необходимо ознакомиться с изменениями (добавлениями) и перекачать торрент.

Данный релиз предназначен для просмотра на ПК. Воспроизведение на иных проигрывателях не гарантируется. Для просмотра рекомендуется Media Player Classic с установленным пакетом кодеков K-Lite.

Данный релиз содержит 10-битное видео (Hi10p). Для корректного воспроизведения обязательно используйте кодеки, поддерживающие 10-битное видео.
Обсудить проблемы с воспроизведением и получить дополнительную информацию можно [url=...3682344]здесь[/url].

Данный релиз предназначен для просмотра с внешними субтитрами и внешними звуковыми дорожками.
<ol class="post-ul">
Для просмотра с внешней звуковой дорожкой нужно:
перекинуть файлы .mka из папки "RUS Sound [<автор(ы) озвучки>]" в одну папку с видео и переключить звуковую дорожку в плеере при просмотре. Как это сделать в разных плеерах подробно описано [url=...2403326]здесь[/url].
Для просмотра с субтитрами нужно:
перекинуть файлы .ass из папки "RUS Subtitles [<автор(ы) перевода>]" в одну папку с видео - плеер подгрузит их автоматически при открытии видео.
</ol>

Если у вас возникли проблемы с просмотром, не связанные с описанным выше, сообщите о них автору раздачи посредством сообщения в теме или ЛС Aglenn.
</ol>


Трекер:  [ 01-Янв-2015 13:30 ]

  

Скачать .torrent

Размер .torrent файла 15 KB


Размер: 1.36 GB
Хэш (hash) релиза: 8893663a57c11652bba92e62213a9b3dab4b670f
Подписка на обновления:

Еще никто не оставлял запись к записи скачать торрент Прекрасный библиотекарь Daitoshokan no Hitsujikai . Будь первым!

!Обратная связь