Скачать через торрент музыку Рио 2 Rio 2 - 2014, FLAC бесплатно без регистрации torrent

Если у вас наблюдаются проблемы со скриншотами, переходом по ссылками, скачиванием торрентов - проблемы в блокировщике рекламы AdBlock. #хорошегоДня!


Статистика раздачи
Размер:  255 MB   |    Зарегистрирован:  2 года 11 месяцев   |    .torrent скачан:  40 раз   |   
Раздают:  1  
   
Загрузка...
 
Автор Сообщение

Galfimbul

avatar Galfimbul


Рио 2 / Rio 2


Жанр: Soundtrack || Год выпуска диска: 2014 || Страна-производитель диска: США || Аудио кодек: FLAC (*.flac) || Тип рипа: tracks+.cue || Битрейт аудио: lossless || Продолжительность: 00:39:14 || Источник: What.cd (unified) || Наличие сканов в содержимом раздачи: нет
Треклист:
01. Janelle Monáe - What Is Love [03:32]
02. Ester Dean feat. B.o.B - Rio Rio (feat. B.o.B) [02:41]
03. Andy García, Barbatuques & Rita Moreno - Beautiful Creatures [02:07]
04. Bruno Mars - Welcome Back [01:08]
05. Carlinhos Brown & Nina de Freitas - Ô Vida [01:47]
06. Philip Lawrence feat. UAKTI - It's A Jungle Out Here [Brazilian Version] [03:59]
07. Flávia Maia & Anne Hathaway feat. UAKTI - Don't Go Away (feat. UAKTI) [02:38]
08. Carlinhos Brown, Amy Heidemann, Andy García, Jamie Foxx, Rachel Crow, Rita Moreno & Siedah Garrett - Batucada Familia [02:42]
09. Jemaine Clement & Kristin Chenoweth - Poisonous Love [03:30]
10. Jemaine Clement & Kristin Chenoweth - I Will Survive [01:51]
11. Carlinhos Brown - Bola Viva [03:22]
12. Milton Nascimento - Favo De Mel [03:08]
13. Philip Lawrence - It's A Jungle Out Here [04:00]
14. Janelle Monáe, Anne Hathaway, Carlinhos Brown, Jamie Foxx & Jessie Eisenberg - What Is Love [02:43]
X Lossless Decoder version 20140504 (147.0)

XLD extraction logfile from 2014-07-10 21:38:14 -0500

Various Artists / Rio 2 (Music from the Motion Picture)

Used drive : MATSHITA DVD-R UJ-8A8 (revision HB14)Media type : Pressed CD

Ripper mode : XLD Secure RipperDisable audio cache : OK for the drive with a cache less than 1375KiBMake use of C2 pointers : NORead offset correction : 102Max retry count : 20Gap status : Analyzed, Appended (except HTOA)

TOC of the extracted CD Track | Start | Length | Start sector | End sector --------------------------------------------------------- 1 | 00:00:00 | 03:32:22 | 0 | 15921 2 | 03:32:22 | 02:41:03 | 15922 | 27999 3 | 06:13:25 | 02:07:62 | 28000 | 37586 4 | 08:21:12 | 01:08:62 | 37587 | 42748 5 | 09:29:74 | 01:47:60 | 42749 | 50833 6 | 11:17:59 | 03:59:22 | 50834 | 68780 7 | 15:17:06 | 02:38:45 | 68781 | 80675 8 | 17:55:51 | 02:42:56 | 80676 | 92881 9 | 20:38:32 | 03:30:42 | 92882 | 108673 10 | 24:08:74 | 01:51:28 | 108674 | 117026 11 | 26:00:27 | 03:22:17 | 117027 | 132193 12 | 29:22:44 | 03:08:12 | 132194 | 146305 13 | 32:30:56 | 04:00:01 | 146306 | 164306 14 | 36:30:57 | 02:43:46 | 164307 | 176577

AccurateRip Summary Disc not found in AccurateRip DB.

All Tracks Album gain : -8.08 dB Peak : 0.988525 Statistics Read error : 0 Jitter error (maybe fixed) : 0 Retry sector count : 0 Damaged sector count : 0

Track 01 Filename : /Upload/Various Artists - Rio 2 (Music from the Motion Picture) (2014) [FLAC]/01 - What Is Love.flac Pre-gap length : 00:02:00

Track gain : -8.95 dB Peak : 0.957367 CRC32 hash (test run) : 02484EA5 CRC32 hash : 02484EA5 CRC32 hash (skip zero) : 432658FC AccurateRip v1 signature : 64F8A864 AccurateRip v2 signature : 897A7EF5 ->Track not present in AccurateRip database. Statistics Read error : 0 Jitter error (maybe fixed) : 0 Retry sector count : 0 Damaged sector count : 0

Track 02 Filename : /Upload/Various Artists - Rio 2 (Music from the Motion Picture) (2014) [FLAC]/02 - Rio Rio.flac

Track gain : -6.98 dB Peak : 0.988525 CRC32 hash (test run) : 4B356006 CRC32 hash : 4B356006 CRC32 hash (skip zero) : 85761E12 AccurateRip v1 signature : 6B22ED4B AccurateRip v2 signature : A6E6AA0D ->Track not present in AccurateRip database. Statistics Read error : 0 Jitter error (maybe fixed) : 0 Retry sector count : 0 Damaged sector count : 0

Track 03 Filename : /Upload/Various Artists - Rio 2 (Music from the Motion Picture) (2014) [FLAC]/03 - Beautiful Creatures.flac

Track gain : -8.57 dB Peak : 0.988525 CRC32 hash (test run) : E432695A CRC32 hash : E432695A CRC32 hash (skip zero) : CAB2D42F AccurateRip v1 signature : 27E8D417 AccurateRip v2 signature : 38F52227 ->Track not present in AccurateRip database. Statistics Read error : 0 Jitter error (maybe fixed) : 0 Retry sector count : 0 Damaged sector count : 0

Track 04 Filename : /Upload/Various Artists - Rio 2 (Music from the Motion Picture) (2014) [FLAC]/04 - Welcome Back.flac

Track gain : -8.16 dB Peak : 0.973114 CRC32 hash (test run) : B969A6EE CRC32 hash : B969A6EE CRC32 hash (skip zero) : FFFD919F AccurateRip v1 signature : CB5D1640 AccurateRip v2 signature : 3AE3785D ->Track not present in AccurateRip database. Statistics Read error : 0 Jitter error (maybe fixed) : 0 Retry sector count : 0 Damaged sector count : 0

Track 05 Filename : /Upload/Various Artists - Rio 2 (Music from the Motion Picture) (2014) [FLAC]/05 - Ô Vida.flac

Track gain : -8.04 dB Peak : 0.988525 CRC32 hash (test run) : AB65BAD9 CRC32 hash : AB65BAD9 CRC32 hash (skip zero) : 142786B7 AccurateRip v1 signature : CEFFA868 AccurateRip v2 signature : CD6F751D ->Track not present in AccurateRip database. Statistics Read error : 0 Jitter error (maybe fixed) : 0 Retry sector count : 0 Damaged sector count : 0

Track 06 Filename : /Upload/Various Artists - Rio 2 (Music from the Motion Picture) (2014) [FLAC]/06 - It's a Jungle Out Here (Brazilian).flac

Track gain : -8.66 dB Peak : 0.988525 CRC32 hash (test run) : 54D4E09C CRC32 hash : 54D4E09C CRC32 hash (skip zero) : 9710DF7E AccurateRip v1 signature : A95E3424 AccurateRip v2 signature : C522EC3A ->Track not present in AccurateRip database. Statistics Read error : 0 Jitter error (maybe fixed) : 0 Retry sector count : 0 Damaged sector count : 0

Track 07 Filename : /Upload/Various Artists - Rio 2 (Music from the Motion Picture) (2014) [FLAC]/07 - Don't Go Away.flac

Track gain : -2.81 dB Peak : 0.953064 CRC32 hash (test run) : 5AB9189F CRC32 hash : 5AB9189F CRC32 hash (skip zero) : DE33A4AA AccurateRip v1 signature : EFC43C80 AccurateRip v2 signature : 4113BDDD ->Track not present in AccurateRip database. Statistics Read error : 0 Jitter error (maybe fixed) : 0 Retry sector count : 0 Damaged sector count : 0

Track 08 Filename : /Upload/Various Artists - Rio 2 (Music from the Motion Picture) (2014) [FLAC]/08 - Batucada Familia.flac

Track gain : -7.12 dB Peak : 0.988525 CRC32 hash (test run) : 402CBDED CRC32 hash : 402CBDED CRC32 hash (skip zero) : DF9C635F AccurateRip v1 signature : 691B4A3F AccurateRip v2 signature : E18A2630 ->Track not present in AccurateRip database. Statistics Read error : 0 Jitter error (maybe fixed) : 0 Retry sector count : 0 Damaged sector count : 0

Track 09 Filename : /Upload/Various Artists - Rio 2 (Music from the Motion Picture) (2014) [FLAC]/09 - Poisonous Love.flac

Track gain : -7.52 dB Peak : 0.966644 CRC32 hash (test run) : 7AAB4482 CRC32 hash : 7AAB4482 CRC32 hash (skip zero) : F2635F82 AccurateRip v1 signature : 12124CBF AccurateRip v2 signature : D5972A51 ->Track not present in AccurateRip database. Statistics Read error : 0 Jitter error (maybe fixed) : 0 Retry sector count : 0 Damaged sector count : 0

Track 10 Filename : /Upload/Various Artists - Rio 2 (Music from the Motion Picture) (2014) [FLAC]/10 - I Will Survive.flac

Track gain : -6.96 dB Peak : 0.988525 CRC32 hash (test run) : 8FA95CB5 CRC32 hash : 8FA95CB5 CRC32 hash (skip zero) : D66B4138 AccurateRip v1 signature : 8DC52849 AccurateRip v2 signature : 0AD9C0BB ->Track not present in AccurateRip database. Statistics Read error : 0 Jitter error (maybe fixed) : 0 Retry sector count : 0 Damaged sector count : 0

Track 11 Filename : /Upload/Various Artists - Rio 2 (Music from the Motion Picture) (2014) [FLAC]/11 - Bola Viva.flac

Track gain : -8.34 dB Peak : 0.988525 CRC32 hash (test run) : 1D3B4C06 CRC32 hash : 1D3B4C06 CRC32 hash (skip zero) : 2DBA64D5 AccurateRip v1 signature : E39F30BC AccurateRip v2 signature : CF60F54B ->Track not present in AccurateRip database. Statistics Read error : 0 Jitter error (maybe fixed) : 0 Retry sector count : 0 Damaged sector count : 0

Track 12 Filename : /Upload/Various Artists - Rio 2 (Music from the Motion Picture) (2014) [FLAC]/12 - Favo de Mel.flac

Track gain : -6.23 dB Peak : 0.958862 CRC32 hash (test run) : D62C83E2 CRC32 hash : D62C83E2 CRC32 hash (skip zero) : DC3E9DA7 AccurateRip v1 signature : DDED2634 AccurateRip v2 signature : C938526F ->Track not present in AccurateRip database. Statistics Read error : 0 Jitter error (maybe fixed) : 0 Retry sector count : 0 Damaged sector count : 0

Track 13 Filename : /Upload/Various Artists - Rio 2 (Music from the Motion Picture) (2014) [FLAC]/13 - It's a Jungle Out Here.flac

Track gain : -7.41 dB Peak : 0.718933 CRC32 hash (test run) : 0087F130 CRC32 hash : 0087F130 CRC32 hash (skip zero) : 75E99086 AccurateRip v1 signature : 5DA6B572 AccurateRip v2 signature : 679A1943 ->Track not present in AccurateRip database. Statistics Read error : 0 Jitter error (maybe fixed) : 0 Retry sector count : 0 Damaged sector count : 0

Track 14 Filename : /Upload/Various Artists - Rio 2 (Music from the Motion Picture) (2014) [FLAC]/14 - What Is Love (Cast).flac

Track gain : -8.62 dB Peak : 0.988525 CRC32 hash (test run) : FFCFCAC6 CRC32 hash : FFCFCAC6 CRC32 hash (skip zero) : 310D8F82 AccurateRip v1 signature : 7A8DD74C AccurateRip v2 signature : 3B9A9E63 ->Track not present in AccurateRip database. Statistics Read error : 0 Jitter error (maybe fixed) : 0 Retry sector count : 0 Damaged sector count : 0

No errors occurred

End of status report

-----BEGIN XLD SIGNATURE-----6osj6z7CygFbbp0I4RI55uTWlxSi5APNQ6OQUc0SlnqL8rwT_JsIqD5Nuo5urKb4YUOyopxGfjJJ30w1WqiqjrtBZ5vdBoMBRoOGVW8-----END XLD SIGNATURE-----
TITLE "Rio 2 (Music from the Motion Picture)"PERFORMER "Various Artists"CATALOG 0075678673856REM GENRE "Soundtrack"REM DATE "2014"REM DISCNUMBER 1REM DISCID B509320EREM REPLAYGAIN_ALBUM_GAIN -8.08 dBREM REPLAYGAIN_ALBUM_PEAK 0.988525FILE "01 - What Is Love.flac" WAVE TRACK 01 AUDIO TITLE "What Is Love" PERFORMER "Janelle Monáe" ISRC USAT21400677 FLAGS DCP REM REPLAYGAIN_TRACK_GAIN -8.95 dB REM REPLAYGAIN_TRACK_PEAK 0.957367 INDEX 01 00:00:00FILE "02 - Rio Rio.flac" WAVE TRACK 02 AUDIO TITLE "Rio Rio" PERFORMER "Ester Dean (feat. B.o.B)" ISRC USAT21400678 FLAGS DCP REM REPLAYGAIN_TRACK_GAIN -6.98 dB REM REPLAYGAIN_TRACK_PEAK 0.988525 INDEX 01 00:00:00FILE "03 - Beautiful Creatures.flac" WAVE TRACK 03 AUDIO TITLE "Beautiful Creatures" PERFORMER "Barbatuques, Andy Garcia and Rita Moreno" ISRC USAT21400679 FLAGS DCP REM REPLAYGAIN_TRACK_GAIN -8.57 dB REM REPLAYGAIN_TRACK_PEAK 0.988525 INDEX 01 00:00:00FILE "04 - Welcome Back.flac" WAVE TRACK 04 AUDIO TITLE "Welcome Back" PERFORMER "Bruno Mars" ISRC USAT21400680 FLAGS DCP REM REPLAYGAIN_TRACK_GAIN -8.16 dB REM REPLAYGAIN_TRACK_PEAK 0.973114 INDEX 01 00:00:00FILE "05 - Ô Vida.flac" WAVE TRACK 05 AUDIO TITLE "Ô Vida" PERFORMER "Carlinhos Brown and Nina de Freitas" ISRC USAT21400681 FLAGS DCP REM REPLAYGAIN_TRACK_GAIN -8.04 dB REM REPLAYGAIN_TRACK_PEAK 0.988525 INDEX 01 00:00:00FILE "06 - It's a Jungle Out Here (Brazilian).flac" WAVE TRACK 06 AUDIO TITLE "It's a Jungle Out Here (Brazilian)" PERFORMER "Philip Lawrence (feat. UAKTI)" ISRC USAT21400682 FLAGS DCP REM REPLAYGAIN_TRACK_GAIN -8.66 dB REM REPLAYGAIN_TRACK_PEAK 0.988525 INDEX 01 00:00:00FILE "07 - Don't Go Away.flac" WAVE TRACK 07 AUDIO TITLE "Don't Go Away" PERFORMER "Anne Hathaway and Flávia Maia (feat. UAKTI)" ISRC USAT21400683 FLAGS DCP REM REPLAYGAIN_TRACK_GAIN -2.81 dB REM REPLAYGAIN_TRACK_PEAK 0.953064 INDEX 01 00:00:00FILE "08 - Batucada Familia.flac" WAVE TRACK 08 AUDIO TITLE "Batucada Familia" PERFORMER "Carlinhos Brown, Siedah Garrett, Jamie Foxx, Rachel Crow, Amy Heidemann, Andy Garcia and Rita Moreno" ISRC USAT21400684 FLAGS DCP REM REPLAYGAIN_TRACK_GAIN -7.12 dB REM REPLAYGAIN_TRACK_PEAK 0.988525 INDEX 01 00:00:00FILE "09 - Poisonous Love.flac" WAVE TRACK 09 AUDIO TITLE "Poisonous Love" PERFORMER "Kristin Chenoweth and Jemaine Clement" ISRC USAT21400685 FLAGS DCP REM REPLAYGAIN_TRACK_GAIN -7.52 dB REM REPLAYGAIN_TRACK_PEAK 0.966644 INDEX 01 00:00:00FILE "10 - I Will Survive.flac" WAVE TRACK 10 AUDIO TITLE "I Will Survive" PERFORMER "Jemaine Clement and Kristin Chenoweth" ISRC USAT21400686 REM REPLAYGAIN_TRACK_GAIN -6.96 dB REM REPLAYGAIN_TRACK_PEAK 0.988525 INDEX 01 00:00:00FILE "11 - Bola Viva.flac" WAVE TRACK 11 AUDIO TITLE "Bola Viva" PERFORMER "Carlinhos Brown" ISRC USAT21400687 FLAGS DCP REM REPLAYGAIN_TRACK_GAIN -8.34 dB REM REPLAYGAIN_TRACK_PEAK 0.988525 INDEX 01 00:00:00FILE "12 - Favo de Mel.flac" WAVE TRACK 12 AUDIO TITLE "Favo de Mel" PERFORMER "Milton Nascimento" ISRC USAT21400688 FLAGS DCP REM REPLAYGAIN_TRACK_GAIN -6.23 dB REM REPLAYGAIN_TRACK_PEAK 0.958862 INDEX 01 00:00:00FILE "13 - It's a Jungle Out Here.flac" WAVE TRACK 13 AUDIO TITLE "It's a Jungle Out Here" PERFORMER "Philip Lawrence" ISRC USAT21400689 FLAGS DCP REM REPLAYGAIN_TRACK_GAIN -7.41 dB REM REPLAYGAIN_TRACK_PEAK 0.718933 INDEX 01 00:00:00FILE "14 - What Is Love (Cast).flac" WAVE TRACK 14 AUDIO TITLE "What Is Love (Cast)" PERFORMER "Janelle Monáe, Anne Hathaway, Jesse Eisenberg, Jamie Foxx, and Carlinhos Brown " ISRC USAT21400690 FLAGS DCP REM REPLAYGAIN_TRACK_GAIN -8.62 dB REM REPLAYGAIN_TRACK_PEAK 0.988525 INDEX 01 00:00:00

MP3: [url=...4703025](Soundtrack) Рио 2 / Rio 2 (by VA) - 2014, MP3 (tracks), 320 kbps[/url]


Трекер:  [ 01-Янв-2015 22:00 ]

  

Скачать .torrent

Размер .torrent файла 21 KB


Размер: 255 MB
Хэш (hash) релиза: 6a212bbbf80c35be913453034298d36b7fd4fd2a

Еще никто не оставлял запись к записи скачать торрент Рио 2 Rio 2 - 2014, FLAC . Будь первым!

!Обратная связь