Скачать через торрент музыку Исчезнувшая Gone Girl бесплатно без регистрации torrent

Если у вас наблюдаются проблемы со скриншотами, переходом по ссылками, скачиванием торрентов - проблемы в блокировщике рекламы AdBlock. #хорошегоДня!


Статистика раздачи
Размер:  308 MB   |    Зарегистрирован:  2 года 11 месяцев   |    .torrent скачан:  46 раз   |   
Раздают:  1  
   
Загрузка...
 
Автор Сообщение

Galfimbul

avatar Galfimbul


Исчезнувшая / Gone Girl


Жанр: Score || Композитор: Trent Reznor and Atticus Ross || Год выпуска диска: 2014 || Страна-производитель диска: США || Аудио кодек: FLAC (*.flac) || Тип рипа: tracks+.cue || Битрейт аудио: lossless || Продолжительность: 01:26:55 || Источник: What.cd (neo_reloaded) || Наличие сканов в содержимом раздачи: нет
Треклист:
CD1
01. What Have We Done to Each Other? [02:30]
02. Sugar Storm [02:54]
03. Empty Places [02:46]
04. With Suspicion [03:17]
05. Just Like You [04:12]
06. Appearances [02:52]
07. Clue One [01:31]
08. Clue Two [05:10]
09. Background Noise [03:10]
10. Procedural [04:30]
11. Something Disposable [04:29]
12. Like Home [03:40]
13. Empty Places (Reprise) [02:20]
14. The Way He Looks at Me [03:28]
CD2
01. Technically, Missing [06:44]
02. Secrets [03:09]
03. Perpetual [04:01]
04. Strange Activities [02:37]
05. Still Gone [02:48]
06. A Reflection [01:46]
07. Consummation [04:10]
08. Sugar Storm (Reprise) [00:42]
09. What Will We Do? [03:05]
10. At Risk [11:05]
Exact Audio Copy V1.0 beta 3 from 29. August 2011

EAC extraction logfile from 29. December 2014, 20:37

Trent Reznor and Atticus Ross / Gone Girl: Soundtrack From The Motion Picture

Used drive : PIONEER BD-RW BDR-205 Adapter: 0 ID: 1

Read mode : SecureUtilize accurate stream : YesDefeat audio cache : YesMake use of C2 pointers : No

Read offset correction : 667Overread into Lead-In and Lead-Out : NoFill up missing offset samples with silence : YesDelete leading and trailing silent blocks : NoNull samples used in CRC calculations : YesUsed interface : Native Win32 interface for Win NT & 2000Gap handling : Appended to previous track

Used output format : User Defined EncoderSelected bitrate : 1024 kBit/sQuality : HighAdd ID3 tag : NoCommand line compressor : C:\Program Files (x86)\Exact Audio Copy\FLAC\FLAC.EXEAdditional command line options : -8 -V -T "ARTIST=%artist%" -T "TITLE=%title%" -T "ALBUM=%albumtitle%" -T "DATE=%year%" -T "TRACKNUMBER=%tracknr%" -T "GENRE=%genre%" -T "PERFORMER=%albuminterpret%" -T "COMPOSER=%composer%" %haslyrics%--tag-from-file=LYRICS="%lyricsfile%"%haslyrics% -T "ALBUMARTIST=%albumartist%" -T "DISCNUMBER=%cdnumber%" -T "TOTALDISCS=%totalcds%" -T "TOTALTRACKS=%numtracks%" -T "COMMENT=%comment%" %source% -o %dest%

TOC of the extracted CD

Track | Start | Length | Start sector | End sector --------------------------------------------------------- 1 | 0:00.00 | 2:30.32 | 0 | 11281 2 | 2:30.32 | 2:53.41 | 11282 | 24297 3 | 5:23.73 | 2:46.31 | 24298 | 36778 4 | 8:10.29 | 4:03.26 | 36779 | 55029 5 | 12:13.55 | 4:11.44 | 55030 | 73898 6 | 16:25.24 | 2:52.18 | 73899 | 86816 7 | 19:17.42 | 1:30.60 | 86817 | 93626 8 | 20:48.27 | 5:10.24 | 93627 | 116900 9 | 25:58.51 | 3:09.39 | 116901 | 131114 10 | 29:08.15 | 4:30.37 | 131115 | 151401 11 | 33:38.52 | 4:28.54 | 151402 | 171555 12 | 38:07.31 | 3:39.58 | 171556 | 188038 13 | 41:47.14 | 2:20.24 | 188039 | 198562 14 | 44:07.38 | 3:32.65 | 198563 | 214527

Track 1

Filename C:\EAC rips\1 - 01 - What Have We Done To Each Other.wav

Pre-gap length 0:00:02.00

Peak level 87.4 % Extraction speed 4.3 X Track quality 100.0 % Test CRC 0F21A6EC Copy CRC 0F21A6EC Track not present in AccurateRip database Copy OK

Track 2

Filename C:\EAC rips\1 - 02 - Sugar Storm.wav

Peak level 77.6 % Extraction speed 4.8 X Track quality 100.0 % Test CRC EE7D5F9A Copy CRC EE7D5F9A Track not present in AccurateRip database Copy OK

Track 3

Filename C:\EAC rips\1 - 03 - Empty Places.wav

Peak level 92.7 % Extraction speed 4.9 X Track quality 100.0 % Test CRC 8D1FF2FB Copy CRC 8D1FF2FB Track not present in AccurateRip database Copy OK

Track 4

Filename C:\EAC rips\1 - 04 - With Suspicion.wav

Peak level 95.2 % Extraction speed 5.0 X Track quality 99.9 % Test CRC 7FD73C61 Copy CRC 7FD73C61 Track not present in AccurateRip database Copy OK

Track 5

Filename C:\EAC rips\1 - 05 - Just Like You.wav

Peak level 94.0 % Extraction speed 5.9 X Track quality 100.0 % Test CRC 5922C3A3 Copy CRC 5922C3A3 Track not present in AccurateRip database Copy OK

Track 6

Filename C:\EAC rips\1 - 06 - Appearances.wav

Peak level 94.0 % Extraction speed 5.9 X Track quality 100.0 % Test CRC DBFDDE5B Copy CRC DBFDDE5B Track not present in AccurateRip database Copy OK

Track 7

Filename C:\EAC rips\1 - 07 - Clue One.wav

Peak level 94.0 % Extraction speed 5.1 X Track quality 100.0 % Test CRC A95CA204 Copy CRC A95CA204 Track not present in AccurateRip database Copy OK

Track 8

Filename C:\EAC rips\1 - 08 - Clue Two.wav

Peak level 84.1 % Extraction speed 6.8 X Track quality 100.0 % Test CRC 8F2A2E32 Copy CRC 8F2A2E32 Track not present in AccurateRip database Copy OK

Track 9

Filename C:\EAC rips\1 - 09 - Background Noise.wav

Peak level 94.0 % Extraction speed 6.4 X Track quality 100.0 % Test CRC 04C48D4B Copy CRC 04C48D4B Track not present in AccurateRip database Copy OK

Track 10

Filename C:\EAC rips\1 - 10 - Procedural.wav

Peak level 94.0 % Extraction speed 7.0 X Track quality 100.0 % Test CRC 5C430FD8 Copy CRC 5C430FD8 Track not present in AccurateRip database Copy OK

Track 11

Filename C:\EAC rips\1 - 11 - Something Disposable.wav

Peak level 94.0 % Extraction speed 7.3 X Track quality 100.0 % Test CRC 1DB37E82 Copy CRC 1DB37E82 Track not present in AccurateRip database Copy OK

Track 12

Filename C:\EAC rips\1 - 12 - Like Home.wav

Peak level 93.5 % Extraction speed 6.4 X Track quality 99.9 % Test CRC 68CC9797 Copy CRC 68CC9797 Track not present in AccurateRip database Copy OK

Track 13

Filename C:\EAC rips\1 - 13 - Empty Places (Reprise).wav

Peak level 93.9 % Extraction speed 6.8 X Track quality 100.0 % Test CRC 8F43ADEE Copy CRC 8F43ADEE Track not present in AccurateRip database Copy OK

Track 14

Filename C:\EAC rips\1 - 14 - The Way He Looks At Me.wav

Peak level 98.5 % Extraction speed 6.5 X Track quality 99.9 % Test CRC 915A8220 Copy CRC 915A8220 Track not present in AccurateRip database Copy OK

None of the tracks are present in the AccurateRip database

No errors occurred

End of status report

==== Log checksum 29B6D0F7969490DDE00BF49BADC6ED15DD87A4695D1001C3F9E1022F46CDCC01 ====
REM GENRE SoundtrackREM DATE 2014REM DISCID B90B2C0EREM COMMENT "ExactAudioCopy v1.0b3"PERFORMER "Trent Reznor and Atticus Ross"TITLE "Gone Girl: Soundtrack From The Motion Picture"FILE "1 - 01 - What Have We Done To Each Other.wav" WAVE TRACK 01 AUDIO TITLE "What Have We Done To Each Other?" PERFORMER "Trent Reznor and Atticus Ross" ISRC USQX91401960 INDEX 01 00:00:00FILE "1 - 02 - Sugar Storm.wav" WAVE TRACK 02 AUDIO TITLE "Sugar Storm" PERFORMER "Trent Reznor and Atticus Ross" ISRC USQX91401961 INDEX 01 00:00:00FILE "1 - 03 - Empty Places.wav" WAVE TRACK 03 AUDIO TITLE "Empty Places" PERFORMER "Trent Reznor and Atticus Ross" ISRC USQX91401962 INDEX 01 00:00:00FILE "1 - 04 - With Suspicion.wav" WAVE TRACK 04 AUDIO TITLE "With Suspicion" PERFORMER "Trent Reznor and Atticus Ross" ISRC USQX91401963 INDEX 01 00:00:00FILE "1 - 05 - Just Like You.wav" WAVE TRACK 05 AUDIO TITLE "Just Like You" PERFORMER "Trent Reznor and Atticus Ross" ISRC USQX91401964 INDEX 01 00:00:00FILE "1 - 06 - Appearances.wav" WAVE TRACK 06 AUDIO TITLE "Appearances" PERFORMER "Trent Reznor and Atticus Ross" ISRC USQX91401965 INDEX 01 00:00:00FILE "1 - 07 - Clue One.wav" WAVE TRACK 07 AUDIO TITLE "Clue One" PERFORMER "Trent Reznor and Atticus Ross" ISRC USQX91401966 INDEX 01 00:00:00FILE "1 - 08 - Clue Two.wav" WAVE TRACK 08 AUDIO TITLE "Clue Two" PERFORMER "Trent Reznor and Atticus Ross" ISRC USQX91401967 INDEX 01 00:00:00FILE "1 - 09 - Background Noise.wav" WAVE TRACK 09 AUDIO TITLE "Background Noise" PERFORMER "Trent Reznor and Atticus Ross" ISRC USQX91401968 INDEX 01 00:00:00FILE "1 - 10 - Procedural.wav" WAVE TRACK 10 AUDIO TITLE "Procedural" PERFORMER "Trent Reznor and Atticus Ross" ISRC USQX91401969 INDEX 01 00:00:00FILE "1 - 11 - Something Disposable.wav" WAVE TRACK 11 AUDIO TITLE "Something Disposable" PERFORMER "Trent Reznor and Atticus Ross" ISRC USQX91401970 INDEX 01 00:00:00FILE "1 - 12 - Like Home.wav" WAVE TRACK 12 AUDIO TITLE "Like Home" PERFORMER "Trent Reznor and Atticus Ross" ISRC USQX91401971 INDEX 01 00:00:00FILE "1 - 13 - Empty Places (Reprise).wav" WAVE TRACK 13 AUDIO TITLE "Empty Places (Reprise)" PERFORMER "Trent Reznor and Atticus Ross" ISRC USQX91401972 INDEX 01 00:00:00FILE "1 - 14 - The Way He Looks At Me.wav" WAVE TRACK 14 AUDIO TITLE "The Way He Looks At Me" PERFORMER "Trent Reznor and Atticus Ross" ISRC USQX91401973 INDEX 01 00:00:00
Exact Audio Copy V1.0 beta 3 from 29. August 2011

EAC extraction logfile from 29. December 2014, 21:33

Trent Reznor and Atticus Ross / Gone Girl: Soundtrack From The Motion Picture

Used drive : PIONEER BD-RW BDR-205 Adapter: 0 ID: 1

Read mode : SecureUtilize accurate stream : YesDefeat audio cache : YesMake use of C2 pointers : No

Read offset correction : 667Overread into Lead-In and Lead-Out : NoFill up missing offset samples with silence : YesDelete leading and trailing silent blocks : NoNull samples used in CRC calculations : YesUsed interface : Native Win32 interface for Win NT & 2000Gap handling : Appended to previous track

Used output format : User Defined EncoderSelected bitrate : 1024 kBit/sQuality : HighAdd ID3 tag : NoCommand line compressor : C:\Program Files (x86)\Exact Audio Copy\FLAC\FLAC.EXEAdditional command line options : -8 -V -T "ARTIST=%artist%" -T "TITLE=%title%" -T "ALBUM=%albumtitle%" -T "DATE=%year%" -T "TRACKNUMBER=%tracknr%" -T "GENRE=%genre%" -T "PERFORMER=%albuminterpret%" -T "COMPOSER=%composer%" %haslyrics%--tag-from-file=LYRICS="%lyricsfile%"%haslyrics% -T "ALBUMARTIST=%albumartist%" -T "DISCNUMBER=%cdnumber%" -T "TOTALDISCS=%totalcds%" -T "TOTALTRACKS=%numtracks%" -T "COMMENT=%comment%" %source% -o %dest%

TOC of the extracted CD

Track | Start | Length | Start sector | End sector --------------------------------------------------------- 1 | 0:00.00 | 6:44.23 | 0 | 30322 2 | 6:44.23 | 3:08.63 | 30323 | 44485 3 | 9:53.11 | 4:00.54 | 44486 | 62539 4 | 13:53.65 | 2:37.12 | 62540 | 74326 5 | 16:31.02 | 2:47.33 | 74327 | 86884 6 | 19:18.35 | 1:46.25 | 86885 | 94859 7 | 21:04.60 | 4:09.37 | 94860 | 113571 8 | 25:14.22 | 0:41.25 | 113572 | 116671 9 | 25:55.47 | 3:05.43 | 116672 | 130589 10 | 29:01.15 | 11:07.58 | 130590 | 180672

Track 1

Filename C:\EAC rips\2 - 01 - Technically, Missing.wav

Pre-gap length 0:00:02.00

Peak level 94.3 % Extraction speed 5.2 X Track quality 100.0 % Test CRC B7EACDA2 Copy CRC B7EACDA2 Track not present in AccurateRip database Copy OK

Track 2

Filename C:\EAC rips\2 - 02 - Secrets.wav

Peak level 94.2 % Extraction speed 5.2 X Track quality 100.0 % Test CRC 4F73280A Copy CRC 4F73280A Track not present in AccurateRip database Copy OK

Track 3

Filename C:\EAC rips\2 - 03 - Perpetual.wav

Peak level 94.3 % Extraction speed 5.7 X Track quality 100.0 % Test CRC 6B1CBB75 Copy CRC 6B1CBB75 Track not present in AccurateRip database Copy OK

Track 4

Filename C:\EAC rips\2 - 04 - Strange Activities.wav

Peak level 94.2 % Extraction speed 5.7 X Track quality 100.0 % Test CRC 301F9D07 Copy CRC 301F9D07 Track not present in AccurateRip database Copy OK

Track 5

Filename C:\EAC rips\2 - 05 - Still Gone.wav

Peak level 93.9 % Extraction speed 5.8 X Track quality 100.0 % Test CRC 7FA564B8 Copy CRC 7FA564B8 Track not present in AccurateRip database Copy OK

Track 6

Filename C:\EAC rips\2 - 06 - A Reflection.wav

Peak level 93.9 % Extraction speed 5.5 X Track quality 100.0 % Test CRC CE6B895F Copy CRC CE6B895F Track not present in AccurateRip database Copy OK

Track 7

Filename C:\EAC rips\2 - 07 - Consummation.wav

Peak level 97.2 % Extraction speed 6.6 X Track quality 100.0 % Test CRC 5F7AF1B1 Copy CRC 5F7AF1B1 Track not present in AccurateRip database Copy OK

Track 8

Filename C:\EAC rips\2 - 08 - Sugar Storm (Reprise).wav

Peak level 92.1 % Extraction speed 4.0 X Track quality 100.0 % Test CRC 9175F733 Copy CRC 9175F733 Track not present in AccurateRip database Copy OK

Track 9

Filename C:\EAC rips\2 - 09 - What Will We Do.wav

Peak level 94.0 % Extraction speed 5.7 X Track quality 99.9 % Test CRC 9D83B4B3 Copy CRC 9D83B4B3 Track not present in AccurateRip database Copy OK

Track 10

Filename C:\EAC rips\2 - 10 - At Risk.wav

Peak level 94.5 % Extraction speed 8.0 X Track quality 100.0 % Test CRC 0225F265 Copy CRC 0225F265 Track not present in AccurateRip database Copy OK

None of the tracks are present in the AccurateRip database

No errors occurred

End of status report

==== Log checksum 90833F7CE2D481247CEE47CE83C27E4B090CB02ECD697AF5DB8C40F6AE98388B ====
REM GENRE SoundtrackREM DATE 2014REM DISCID 8909680AREM COMMENT "ExactAudioCopy v1.0b3"PERFORMER "Trent Reznor and Atticus Ross"TITLE "Gone Girl: Soundtrack From The Motion Picture"FILE "2 - 01 - Technically, Missing.wav" WAVE TRACK 01 AUDIO TITLE "Technically, Missing" PERFORMER "Trent Reznor and Atticus Ross" ISRC USQX91401974 INDEX 01 00:00:00FILE "2 - 02 - Secrets.wav" WAVE TRACK 02 AUDIO TITLE "Secrets" PERFORMER "Trent Reznor and Atticus Ross" ISRC USQX91401975 INDEX 01 00:00:00FILE "2 - 03 - Perpetual.wav" WAVE TRACK 03 AUDIO TITLE "Perpetual" PERFORMER "Trent Reznor and Atticus Ross" ISRC USQX91401976 INDEX 01 00:00:00FILE "2 - 04 - Strange Activities.wav" WAVE TRACK 04 AUDIO TITLE "Strange Activities" PERFORMER "Trent Reznor and Atticus Ross" ISRC USQX91401977 INDEX 01 00:00:00FILE "2 - 05 - Still Gone.wav" WAVE TRACK 05 AUDIO TITLE "Still Gone" PERFORMER "Trent Reznor and Atticus Ross" ISRC USQX91401978 INDEX 01 00:00:00FILE "2 - 06 - A Reflection.wav" WAVE TRACK 06 AUDIO TITLE "A Reflection" PERFORMER "Trent Reznor and Atticus Ross" ISRC USQX91401979 INDEX 01 00:00:00FILE "2 - 07 - Consummation.wav" WAVE TRACK 07 AUDIO TITLE "Consummation" PERFORMER "Trent Reznor and Atticus Ross" ISRC USQX91401980 INDEX 01 00:00:00FILE "2 - 08 - Sugar Storm (Reprise).wav" WAVE TRACK 08 AUDIO TITLE "Sugar Storm (Reprise)" PERFORMER "Trent Reznor and Atticus Ross" ISRC USQX91401981 INDEX 01 00:00:00FILE "2 - 09 - What Will We Do.wav" WAVE TRACK 09 AUDIO TITLE "What Will We Do?" PERFORMER "Trent Reznor and Atticus Ross" ISRC USQX91401982 INDEX 01 00:00:00FILE "2 - 10 - At Risk.wav" WAVE TRACK 10 AUDIO TITLE "At Risk" PERFORMER "Trent Reznor and Atticus Ross" ISRC USQX91401983 INDEX 01 00:00:00

MP3: [url=...4835215](Score) Исчезнувшая / Gone Girl (Gone Girl O.S.T.) (by Trent Reznor and Atticus Ross) - 2014, MP3, 320 kbps[/url]


Трекер:  [ 02-Янв-2015 13:30 ]

  

Скачать .torrent

Размер .torrent файла 14 KB


Размер: 308 MB
Хэш (hash) релиза: a11867c5ace805a25d1935ecafee56de1afa1399

Торренты, похожие на Исчезнувшая Gone Girl скачать торрент

Форум Название Автор Размер S L Добавлен
Саундтреки к фильмам и мультфильмам (lossless) ·· 24bit (Score) Исчезнувшая / Gone Girl (by Trent Reznor & Atticus Ross) {WEB} - 2014, FLAC (tracks), lossless Galfimbul 830667073792 MB 0 0 1422986041

20:54

3-Фев-15

Еще никто не оставлял запись к записи скачать торрент Исчезнувшая Gone Girl . Будь первым!

!Обратная связь