Скачать через торрент музыку Местный The Homesman бесплатно без регистрации torrent

Если у вас наблюдаются проблемы со скриншотами, переходом по ссылками, скачиванием торрентов - проблемы в блокировщике рекламы AdBlock. #хорошегоДня!


Статистика раздачи
Размер:  228 MB   |    Зарегистрирован:  2 года 11 месяцев   |    .torrent скачан:  1444 раза   |   
Раздают:  1  
   
Загрузка...
 
Автор Сообщение

Galfimbul

avatar Galfimbul


Местный / The Homesman

Название альбома: The Homesman
Жанр: Score
Композитор: Marco Beltrami
Год выпуска диска: 2014
Год выпуска фильма: 2014
Страна-производитель диска: US
Издатель (лейбл): Varese Sarabande
Номер по каталогу: 302 067 317 8
Аудиокодек: FLAC
Тип рипа: tracks
Битрейт аудио: lossless
Продолжительность: 00:45:45
Источник: waht
Наличие сканов в содержимом раздачи: да
ID3-теги: да
Треклист:
01. Marco Beltrami - Main Title (3:53) [320 Kb/s]
02. Marco Beltrami - On The Plains (1:36) [320 Kb/s]
03. Marco Beltrami - Newborn (1:31) [320 Kb/s]
04. Marco Beltrami - Picking Up Arrabella Sours (1:34) [320 Kb/s]
05. Marco Beltrami - Sod Buster (1:33) [320 Kb/s]
06. Marco Beltrami - Bathtime (2:53) [320 Kb/s]
07. Marco Beltrami - Pawnee (2:14) [320 Kb/s]
08. Marco Beltrami - Bury Doll (1:55) [320 Kb/s]
09. Marco Beltrami - River Crossing (2:52) [320 Kb/s]
10. Marco Beltrami - Leaving Home Flashback (1:07) [320 Kb/s]
11. Marco Beltrami - Are You Crazy? (1:47) [320 Kb/s]
12. Marco Beltrami - Travel Montage (0:47) [320 Kb/s]
13. Marco Beltrami - It's Abandoned (1:54) [320 Kb/s]
14. Marco Beltrami - Cuddy Lost (3:13) [320 Kb/s]
15. Marco Beltrami - Where's Cuddy? (1:35) [320 Kb/s]
16. Marco Beltrami - I'll Be Back Directly (3:03) [320 Kb/s]
17. Marco Beltrami - Entering Town (2:21) [320 Kb/s]
18. Marco Beltrami - Briggs Moves On (2:01) [320 Kb/s]
19. Marco Beltrami - Onto The Ferry (2:11) [320 Kb/s]
20. Marco Beltrami - End Credits (3:18) [320 Kb/s]
21. Marco Beltrami - Wind Haiku (2:27) [320 Kb/s]
AUDIOCHECKER v2.0 beta (build 457) - by Dester - opdester@freemail.hu~~~~~~~~~~~~~~~~~~~~~~~~~~~~~~~~~~

Started at: пятница, 02. 01. 2015. - 19:45.3721 files found

01 -===- D:\0TORRENTS\OST Marco Beltrami - The Homesman (2014, Flac)\01 - Main Title.flac Extracted successfully Conclusion: this track is CDDA with probability 99% Tempfile successfully deleted.

02 -===- D:\0TORRENTS\OST Marco Beltrami - The Homesman (2014, Flac)\02 - On The Plains.flac Extracted successfully Conclusion: this track is MPEG with probability 91% Tempfile successfully deleted.

03 -===- D:\0TORRENTS\OST Marco Beltrami - The Homesman (2014, Flac)\03 - Newborn.flac Extracted successfully Conclusion: this track is CDDA with probability 42% Tempfile successfully deleted.

04 -===- D:\0TORRENTS\OST Marco Beltrami - The Homesman (2014, Flac)\04 - Picking Up Arrabella Sours.flac Extracted successfully Conclusion: this track is CDDA with probability 100% Tempfile successfully deleted.

05 -===- D:\0TORRENTS\OST Marco Beltrami - The Homesman (2014, Flac)\05 - Sod Buster.flac Extracted successfully Conclusion: this track is CDDA with probability 100% Tempfile successfully deleted.

06 -===- D:\0TORRENTS\OST Marco Beltrami - The Homesman (2014, Flac)\06 - Bathtime.flac Extracted successfully Conclusion: this track is CDDA with probability 100% Tempfile successfully deleted.

07 -===- D:\0TORRENTS\OST Marco Beltrami - The Homesman (2014, Flac)\07 - Pawnee.flac Extracted successfully Conclusion: this track is MPEG with probability 89% Tempfile successfully deleted.

08 -===- D:\0TORRENTS\OST Marco Beltrami - The Homesman (2014, Flac)\08 - Bury Doll.flac Extracted successfully Conclusion: this track is CDDA with probability 100% Tempfile successfully deleted.

09 -===- D:\0TORRENTS\OST Marco Beltrami - The Homesman (2014, Flac)\09 - River Crossing.flac Extracted successfully Conclusion: this track is CDDA with probability 92% Tempfile successfully deleted.

10 -===- D:\0TORRENTS\OST Marco Beltrami - The Homesman (2014, Flac)\10 - Leaving Home Flashback.flac Extracted successfully Conclusion: this track is CDDA with probability 100% Tempfile successfully deleted.

11 -===- D:\0TORRENTS\OST Marco Beltrami - The Homesman (2014, Flac)\11 - Are You Crazy.flac Extracted successfully Conclusion: this track is CDDA with probability 100% Tempfile successfully deleted.

12 -===- D:\0TORRENTS\OST Marco Beltrami - The Homesman (2014, Flac)\12 - Travel Montage.flac Extracted successfully Conclusion: this track is CDDA with probability 87% Tempfile successfully deleted.

13 -===- D:\0TORRENTS\OST Marco Beltrami - The Homesman (2014, Flac)\13 - It's Abandoned.flac Extracted successfully Conclusion: this track is CDDA with probability 100% Tempfile successfully deleted.

14 -===- D:\0TORRENTS\OST Marco Beltrami - The Homesman (2014, Flac)\14 - Cuddy Lost.flac Extracted successfully Conclusion: this track is CDDA with probability 100% Tempfile successfully deleted.

15 -===- D:\0TORRENTS\OST Marco Beltrami - The Homesman (2014, Flac)\15 - Where's Cuddy.flac Extracted successfully Conclusion: this track is CDDA with probability 100% Tempfile successfully deleted.

16 -===- D:\0TORRENTS\OST Marco Beltrami - The Homesman (2014, Flac)\16 - I'll Be Back Directly.flac Extracted successfully Conclusion: this track is CDDA with probability 100% Tempfile successfully deleted.

17 -===- D:\0TORRENTS\OST Marco Beltrami - The Homesman (2014, Flac)\17 - Entering Town.flac Extracted successfully Conclusion: this track is CDDA with probability 94% Tempfile successfully deleted.

18 -===- D:\0TORRENTS\OST Marco Beltrami - The Homesman (2014, Flac)\18 - Briggs Moves On.flac Extracted successfully Conclusion: this track is CDDA with probability 100% Tempfile successfully deleted.

19 -===- D:\0TORRENTS\OST Marco Beltrami - The Homesman (2014, Flac)\19 - Onto The Ferry.flac Extracted successfully Conclusion: this track is CDDA with probability 85% Tempfile successfully deleted.

20 -===- D:\0TORRENTS\OST Marco Beltrami - The Homesman (2014, Flac)\20 - End Credits.flac Extracted successfully Conclusion: this track is CDDA with probability 85% Tempfile successfully deleted.

21 -===- D:\0TORRENTS\OST Marco Beltrami - The Homesman (2014, Flac)\21 - Wind Haiku.flac Extracted successfully Conclusion: this track is CDDA with probability 99% Tempfile successfully deleted.

Finished at: пятница, 02. 01. 2015. - 19:49.12 (operation time: 0:03.34)
foobar2000 1.3.2 / Замер динамического диапазона (DR) 1.1.1Дата отчёта: 2015-01-02 19:45:12

--------------------------------------------------------------------------------Анализ: Marco Beltrami / The Homesman--------------------------------------------------------------------------------

DR Пики RMS Продолжительность трека--------------------------------------------------------------------------------DR10 -0.15 дБ -13.77 дБ 3:53 01-Main TitleDR11 -0.15 дБ -15.40 дБ 1:36 02-On The PlainsDR8 -4.75 дБ -20.07 дБ 1:31 03-NewbornDR9 -0.15 дБ -13.72 дБ 1:34 04-Picking Up Arrabella SoursDR10 -0.15 дБ -14.68 дБ 1:33 05-Sod BusterDR13 -0.75 дБ -18.34 дБ 2:53 06-BathtimeDR10 -0.15 дБ -14.85 дБ 2:14 07-PawneeDR10 -5.61 дБ -20.71 дБ 1:55 08-Bury DollDR9 -0.15 дБ -14.05 дБ 2:52 09-River CrossingDR12 -2.26 дБ -21.84 дБ 1:07 10-Leaving Home FlashbackDR9 -4.53 дБ -19.13 дБ 1:47 11-Are You Crazy?DR10 -4.43 дБ -19.35 дБ 0:47 12-Travel MontageDR12 -2.36 дБ -18.35 дБ 1:54 13-It's AbandonedDR11 -4.65 дБ -22.22 дБ 3:13 14-Cuddy LostDR11 -0.15 дБ -17.94 дБ 1:35 15-Where's Cuddy?DR10 -0.15 дБ -15.82 дБ 3:03 16-I'll Be Back DirectlyDR11 -0.15 дБ -16.67 дБ 2:21 17-Entering TownDR12 -0.15 дБ -14.73 дБ 2:01 18-Briggs Moves OnDR13 -2.46 дБ -20.56 дБ 2:11 19-Onto The FerryDR12 -0.65 дБ -16.39 дБ 3:18 20-End CreditsDR12 -0.15 дБ -17.23 дБ 2:27 21-Wind Haiku--------------------------------------------------------------------------------

Количество треков: 21Реальные значения DR: DR11

Частота: 44100 ГцКаналов: 2Разрядность: 16Битрейт: 628 кбит/сКодек: FLAC================================================================================

[url=...4888084]mp3[/url]


RG Soundtracks

Трекер:  [ 02-Янв-2015 19:00 ]

  

Скачать .torrent

Размер .torrent файла 19 KB


Размер: 228 MB
Хэш (hash) релиза: 6cc08c7481c1dfe27d83d9ca97ce2296dc6c514a

Торренты, похожие на Местный The Homesman скачать торрент

Форум Название Автор Размер S L Добавлен
Саундтреки к фильмам и мультфильмам (mp3) ·· (Score) Местный / The Homesman (Marco Beltrami) - 2014, MP3 (tracks) 320 kbps Galfimbul 110476059105 MB 0 0 1418150145

21:35

9-Дек-14

Еще никто не оставлял запись к записи скачать торрент Местный The Homesman . Будь первым!

!Обратная связь