Скачать через торрент музыку Нэшвилл Nashville Season 2, Vol. 2 бесплатно без регистрации torrent

Если у вас наблюдаются проблемы со скриншотами, переходом по ссылками, скачиванием торрентов - проблемы в блокировщике рекламы AdBlock. #хорошегоДня!


Статистика раздачи
Размер:  486 MB   |    Зарегистрирован:  2 года 11 месяцев   |    .torrent скачан:  37 раз   |   
Раздают:  1  
   
Загрузка...
 
Автор Сообщение

Galfimbul

avatar Galfimbul


Нэшвилл / Nashville Season 2, Vol. 2


Жанр: Soundtrack || Год выпуска диска: 2014 || Год выпуска фильма: 2013 || Страна-производитель диска: США || Аудио кодек: FLAC (*.flac) || Тип рипа: tracks+.cue || Битрейт аудио: lossless || Продолжительность: 01:13:13 || Источник: What.cd (rrg) || Наличие сканов в содержимом раздачи: да
Треклист:
01. Connie Britton & Hayden Panettiere - He Ain't Gonna Change [03:34]
02. Sam Palladio, Chaley Rose & Jonathan Jackson - I Ain't Leavin' Without Your Love [02:46]
03. Charles Esten, Lennon Stella & Maisy Stella - Believing [03:16]
04. Chris Carmack - Hurtin' On Me [03:29]
05. Sam Palladio & Clare Bowen - Lately [03:46]
06. Connie Britton - Wrong For The Right Reasons [03:19]
07. Hayden Panettiere & Jonathan Jackson - Everything I'll Ever Need [02:19]
08. Lennon Stella & Maisy Stella - Joy Parade [03:11]
09. Clare Bowen - Come Find Me [04:35]
10. Will Chase, Chris Carmack & Charles Esten - It's On Tonight [03:43]
11. Sam Palladio, Jonathan Jackson & Chaley Rose - Hennessee [03:27]
12. Aubrey Peeples - It All Slows Down [03:09]
13. Chris Carmack - Is That Who I Am [04:27]
14. Connie Britton - This Time [02:53]
15. Clare Bowen - Black Roses [03:44]
16. Hayden Panettiere - Don't Put Dirt On My Grave Just Yet [03:11]
17. Connie Britton, Charles Esten, Lennon Stella & Maisy Stella - A Life That's Good [03:31]
18. Chaley Rose - Carry You Home [04:00]
19. Chris Carmack - Then I Was Loved By You [04:20]
20. Clare Bowen - Falling [03:23]
21. Hayden Panettiere - Don't Put Dirt On My Grave Just Yet (Orchestral Version) [03:12]
X Lossless Decoder version 20140504 (147.0)

XLD extraction logfile from 2014-05-22 21:47:06 -0400

Various Artists / The Music of Nashville: Original Soundtrack (Season 2, Volume 2) (Deluxe Edition)

Used drive : HL-DT-ST BD-RE WH16NS40 (revision 1.00)Media type : Pressed CD

Ripper mode : XLD Secure RipperDisable audio cache : OK for the drive with a cache less than 1375KiBMake use of C2 pointers : NORead offset correction : 6Max retry count : 100Gap status : Analyzed, Appended (except HTOA)

TOC of the extracted CD Track | Start | Length | Start sector | End sector --------------------------------------------------------- 1 | 00:00:00 | 03:34:29 | 0 | 16078 2 | 03:34:29 | 02:45:65 | 16079 | 28518 3 | 06:20:19 | 03:16:18 | 28519 | 43236 4 | 09:36:37 | 03:29:07 | 43237 | 58918 5 | 13:05:44 | 03:45:41 | 58919 | 75834 6 | 16:51:10 | 03:19:36 | 75835 | 90795 7 | 20:10:46 | 02:18:59 | 90796 | 101204 8 | 22:29:30 | 03:10:45 | 101205 | 115499 9 | 25:40:00 | 04:34:48 | 115500 | 136097 10 | 30:14:48 | 03:42:57 | 136098 | 152804 11 | 33:57:30 | 03:27:23 | 152805 | 168352 12 | 37:24:53 | 03:09:11 | 168353 | 182538 13 | 40:33:64 | 04:26:66 | 182539 | 202554 14 | 45:00:55 | 02:53:01 | 202555 | 215530 15 | 47:53:56 | 03:43:45 | 215531 | 232300 16 | 51:37:26 | 03:11:12 | 232301 | 246637 17 | 54:48:38 | 03:31:02 | 246638 | 262464 18 | 58:19:40 | 03:59:49 | 262465 | 280438 19 | 62:19:14 | 04:19:38 | 280439 | 299901 20 | 66:38:52 | 03:23:18 | 299902 | 315144 21 | 70:01:70 | 03:11:53 | 315145 | 329522

AccurateRip Summary Disc not found in AccurateRip DB.

All Tracks Album gain : -8.51 dB Peak : 0.944183 Statistics Read error : 0 Jitter error (maybe fixed) : 0 Retry sector count : 0 Damaged sector count : 0

Track 01 Filename : /Volumes/Master/XLD Rips/Compilations - The Music of Nashville: Original Soundtrack (Season 2, Volume 2) (Deluxe Edition) [ALAC]/01 - Connie Britton and Hayden Panettiere - He Ain't Gonna Change.m4a /Volumes/Master/XLD Rips/Compilations - The Music of Nashville: Original Soundtrack (Season 2, Volume 2) (Deluxe Edition) [FLAC]/01 - Connie Britton and Hayden Panettiere - He Ain't Gonna Change.flac /Volumes/Master/XLD Rips/Compilations - The Music of Nashville: Original Soundtrack (Season 2, Volume 2) (Deluxe Edition) [MP3 320]/01 - Connie Britton and Hayden Panettiere - He Ain't Gonna Change.mp3 /Volumes/Master/XLD Rips/Compilations - The Music of Nashville: Original Soundtrack (Season 2, Volume 2) (Deluxe Edition) [MP3 V0]/01 - Connie Britton and Hayden Panettiere - He Ain't Gonna Change.mp3 /Volumes/Master/XLD Rips/Compilations - The Music of Nashville: Original Soundtrack (Season 2, Volume 2) (Deluxe Edition) [MP3 V2]/01 - Connie Britton and Hayden Panettiere - He Ain't Gonna Change.mp3 Pre-gap length : 00:02:00

Track gain : -8.42 dB Peak : 0.944183 CRC32 hash (test run) : 8469AFF7 CRC32 hash : 8469AFF7 CRC32 hash (skip zero) : DBFF6B18 AccurateRip v1 signature : C32317D3 AccurateRip v2 signature : BF9D1B3A ->Track not present in AccurateRip database. Statistics Read error : 0 Jitter error (maybe fixed) : 0 Retry sector count : 0 Damaged sector count : 0

Track 02 Filename : /Volumes/Master/XLD Rips/Compilations - The Music of Nashville: Original Soundtrack (Season 2, Volume 2) (Deluxe Edition) [ALAC]/02 - Sam Palladio, Chaley Rose, Jonathan Jackson - I Ain't Leavin' Without Your Love.m4a /Volumes/Master/XLD Rips/Compilations - The Music of Nashville: Original Soundtrack (Season 2, Volume 2) (Deluxe Edition) [FLAC]/02 - Sam Palladio, Chaley Rose, Jonathan Jackson - I Ain't Leavin' Without Your Love.flac /Volumes/Master/XLD Rips/Compilations - The Music of Nashville: Original Soundtrack (Season 2, Volume 2) (Deluxe Edition) [MP3 320]/02 - Sam Palladio, Chaley Rose, Jonathan Jackson - I Ain't Leavin' Without Your Love.mp3 /Volumes/Master/XLD Rips/Compilations - The Music of Nashville: Original Soundtrack (Season 2, Volume 2) (Deluxe Edition) [MP3 V0]/02 - Sam Palladio, Chaley Rose, Jonathan Jackson - I Ain't Leavin' Without Your Love.mp3 /Volumes/Master/XLD Rips/Compilations - The Music of Nashville: Original Soundtrack (Season 2, Volume 2) (Deluxe Edition) [MP3 V2]/02 - Sam Palladio, Chaley Rose, Jonathan Jackson - I Ain't Leavin' Without Your Love.mp3 Pre-gap length : 00:00:35

Track gain : -8.17 dB Peak : 0.944183 CRC32 hash (test run) : 14209406 CRC32 hash : 14209406 CRC32 hash (skip zero) : 559C57C1 AccurateRip v1 signature : F5A9C38F AccurateRip v2 signature : 3A7E7B4C ->Track not present in AccurateRip database. Statistics Read error : 0 Jitter error (maybe fixed) : 0 Retry sector count : 0 Damaged sector count : 0

Track 03 Filename : /Volumes/Master/XLD Rips/Compilations - The Music of Nashville: Original Soundtrack (Season 2, Volume 2) (Deluxe Edition) [ALAC]/03 - Charles Esten, Lennon Stella, Maisy Stella - Believing.m4a /Volumes/Master/XLD Rips/Compilations - The Music of Nashville: Original Soundtrack (Season 2, Volume 2) (Deluxe Edition) [FLAC]/03 - Charles Esten, Lennon Stella, Maisy Stella - Believing.flac /Volumes/Master/XLD Rips/Compilations - The Music of Nashville: Original Soundtrack (Season 2, Volume 2) (Deluxe Edition) [MP3 320]/03 - Charles Esten, Lennon Stella, Maisy Stella - Believing.mp3 /Volumes/Master/XLD Rips/Compilations - The Music of Nashville: Original Soundtrack (Season 2, Volume 2) (Deluxe Edition) [MP3 V0]/03 - Charles Esten, Lennon Stella, Maisy Stella - Believing.mp3 /Volumes/Master/XLD Rips/Compilations - The Music of Nashville: Original Soundtrack (Season 2, Volume 2) (Deluxe Edition) [MP3 V2]/03 - Charles Esten, Lennon Stella, Maisy Stella - Believing.mp3 Pre-gap length : 00:01:10

Track gain : -7.33 dB Peak : 0.944183 CRC32 hash (test run) : D83A117D CRC32 hash : D83A117D CRC32 hash (skip zero) : 7940D3D8 AccurateRip v1 signature : F42BA6D3 AccurateRip v2 signature : ACAD82EE ->Track not present in AccurateRip database. Statistics Read error : 0 Jitter error (maybe fixed) : 0 Retry sector count : 0 Damaged sector count : 0

Track 04 Filename : /Volumes/Master/XLD Rips/Compilations - The Music of Nashville: Original Soundtrack (Season 2, Volume 2) (Deluxe Edition) [ALAC]/04 - Chris Carmack - Hurtin' on Me.m4a /Volumes/Master/XLD Rips/Compilations - The Music of Nashville: Original Soundtrack (Season 2, Volume 2) (Deluxe Edition) [FLAC]/04 - Chris Carmack - Hurtin' on Me.flac /Volumes/Master/XLD Rips/Compilations - The Music of Nashville: Original Soundtrack (Season 2, Volume 2) (Deluxe Edition) [MP3 320]/04 - Chris Carmack - Hurtin' on Me.mp3 /Volumes/Master/XLD Rips/Compilations - The Music of Nashville: Original Soundtrack (Season 2, Volume 2) (Deluxe Edition) [MP3 V0]/04 - Chris Carmack - Hurtin' on Me.mp3 /Volumes/Master/XLD Rips/Compilations - The Music of Nashville: Original Soundtrack (Season 2, Volume 2) (Deluxe Edition) [MP3 V2]/04 - Chris Carmack - Hurtin' on Me.mp3 Pre-gap length : 00:00:36

Track gain : -9.39 dB Peak : 0.933380 CRC32 hash (test run) : C6C542B2 CRC32 hash : C6C542B2 CRC32 hash (skip zero) : B7D36782 AccurateRip v1 signature : 409DBCC2 AccurateRip v2 signature : 2C3A8468 ->Track not present in AccurateRip database. Statistics Read error : 0 Jitter error (maybe fixed) : 0 Retry sector count : 0 Damaged sector count : 0

Track 05 Filename : /Volumes/Master/XLD Rips/Compilations - The Music of Nashville: Original Soundtrack (Season 2, Volume 2) (Deluxe Edition) [ALAC]/05 - Sam Palladio and Clare Bowen - Lately.m4a /Volumes/Master/XLD Rips/Compilations - The Music of Nashville: Original Soundtrack (Season 2, Volume 2) (Deluxe Edition) [FLAC]/05 - Sam Palladio and Clare Bowen - Lately.flac /Volumes/Master/XLD Rips/Compilations - The Music of Nashville: Original Soundtrack (Season 2, Volume 2) (Deluxe Edition) [MP3 320]/05 - Sam Palladio and Clare Bowen - Lately.mp3 /Volumes/Master/XLD Rips/Compilations - The Music of Nashville: Original Soundtrack (Season 2, Volume 2) (Deluxe Edition) [MP3 V0]/05 - Sam Palladio and Clare Bowen - Lately.mp3 /Volumes/Master/XLD Rips/Compilations - The Music of Nashville: Original Soundtrack (Season 2, Volume 2) (Deluxe Edition) [MP3 V2]/05 - Sam Palladio and Clare Bowen - Lately.mp3 Pre-gap length : 00:01:47

Track gain : -6.42 dB Peak : 0.944153 CRC32 hash (test run) : 550BA081 CRC32 hash : 550BA081 CRC32 hash (skip zero) : D9CF3CFC AccurateRip v1 signature : 9B38E933 AccurateRip v2 signature : 23E3276F ->Track not present in AccurateRip database. Statistics Read error : 0 Jitter error (maybe fixed) : 0 Retry sector count : 0 Damaged sector count : 0

Track 06 Filename : /Volumes/Master/XLD Rips/Compilations - The Music of Nashville: Original Soundtrack (Season 2, Volume 2) (Deluxe Edition) [ALAC]/06 - Connie Britton - Wrong for the Right Reasons.m4a /Volumes/Master/XLD Rips/Compilations - The Music of Nashville: Original Soundtrack (Season 2, Volume 2) (Deluxe Edition) [FLAC]/06 - Connie Britton - Wrong for the Right Reasons.flac /Volumes/Master/XLD Rips/Compilations - The Music of Nashville: Original Soundtrack (Season 2, Volume 2) (Deluxe Edition) [MP3 320]/06 - Connie Britton - Wrong for the Right Reasons.mp3 /Volumes/Master/XLD Rips/Compilations - The Music of Nashville: Original Soundtrack (Season 2, Volume 2) (Deluxe Edition) [MP3 V0]/06 - Connie Britton - Wrong for the Right Reasons.mp3 /Volumes/Master/XLD Rips/Compilations - The Music of Nashville: Original Soundtrack (Season 2, Volume 2) (Deluxe Edition) [MP3 V2]/06 - Connie Britton - Wrong for the Right Reasons.mp3 Pre-gap length : 00:00:64

Track gain : -7.11 dB Peak : 0.912109 CRC32 hash (test run) : E0F8F681 CRC32 hash : E0F8F681 CRC32 hash (skip zero) : F0E405C7 AccurateRip v1 signature : C749E41A AccurateRip v2 signature : 93C55B18 ->Track not present in AccurateRip database. Statistics Read error : 0 Jitter error (maybe fixed) : 0 Retry sector count : 0 Damaged sector count : 0

Track 07 Filename : /Volumes/Master/XLD Rips/Compilations - The Music of Nashville: Original Soundtrack (Season 2, Volume 2) (Deluxe Edition) [ALAC]/07 - Hayden Panettiere and Jonathan Jackson - Everything I'll Ever Need.m4a /Volumes/Master/XLD Rips/Compilations - The Music of Nashville: Original Soundtrack (Season 2, Volume 2) (Deluxe Edition) [FLAC]/07 - Hayden Panettiere and Jonathan Jackson - Everything I'll Ever Need.flac /Volumes/Master/XLD Rips/Compilations - The Music of Nashville: Original Soundtrack (Season 2, Volume 2) (Deluxe Edition) [MP3 320]/07 - Hayden Panettiere and Jonathan Jackson - Everything I'll Ever Need.mp3 /Volumes/Master/XLD Rips/Compilations - The Music of Nashville: Original Soundtrack (Season 2, Volume 2) (Deluxe Edition) [MP3 V0]/07 - Hayden Panettiere and Jonathan Jackson - Everything I'll Ever Need.mp3 /Volumes/Master/XLD Rips/Compilations - The Music of Nashville: Original Soundtrack (Season 2, Volume 2) (Deluxe Edition) [MP3 V2]/07 - Hayden Panettiere and Jonathan Jackson - Everything I'll Ever Need.mp3 Pre-gap length : 00:00:66

Track gain : -6.74 dB Peak : 0.944153 CRC32 hash (test run) : FD75DC67 CRC32 hash : FD75DC67 CRC32 hash (skip zero) : 5D35C178 AccurateRip v1 signature : 258EB6E7 AccurateRip v2 signature : 617C943F ->Track not present in AccurateRip database. Statistics Read error : 0 Jitter error (maybe fixed) : 0 Retry sector count : 0 Damaged sector count : 0

Track 08 Filename : /Volumes/Master/XLD Rips/Compilations - The Music of Nashville: Original Soundtrack (Season 2, Volume 2) (Deluxe Edition) [ALAC]/08 - Lennon Stella and Maisy Stella - Joy Parade.m4a /Volumes/Master/XLD Rips/Compilations - The Music of Nashville: Original Soundtrack (Season 2, Volume 2) (Deluxe Edition) [FLAC]/08 - Lennon Stella and Maisy Stella - Joy Parade.flac /Volumes/Master/XLD Rips/Compilations - The Music of Nashville: Original Soundtrack (Season 2, Volume 2) (Deluxe Edition) [MP3 320]/08 - Lennon Stella and Maisy Stella - Joy Parade.mp3 /Volumes/Master/XLD Rips/Compilations - The Music of Nashville: Original Soundtrack (Season 2, Volume 2) (Deluxe Edition) [MP3 V0]/08 - Lennon Stella and Maisy Stella - Joy Parade.mp3 /Volumes/Master/XLD Rips/Compilations - The Music of Nashville: Original Soundtrack (Season 2, Volume 2) (Deluxe Edition) [MP3 V2]/08 - Lennon Stella and Maisy Stella - Joy Parade.mp3 Pre-gap length : 00:00:20

Track gain : -5.82 dB Peak : 0.944153 CRC32 hash (test run) : 66E790D5 CRC32 hash : 66E790D5 CRC32 hash (skip zero) : 73CE8693 AccurateRip v1 signature : 23A8F0C4 AccurateRip v2 signature : EB3E9290 ->Track not present in AccurateRip database. Statistics Read error : 0 Jitter error (maybe fixed) : 0 Retry sector count : 0 Damaged sector count : 0

Track 09 Filename : /Volumes/Master/XLD Rips/Compilations - The Music of Nashville: Original Soundtrack (Season 2, Volume 2) (Deluxe Edition) [ALAC]/09 - Clare Bowen - Come Find Me.m4a /Volumes/Master/XLD Rips/Compilations - The Music of Nashville: Original Soundtrack (Season 2, Volume 2) (Deluxe Edition) [FLAC]/09 - Clare Bowen - Come Find Me.flac /Volumes/Master/XLD Rips/Compilations - The Music of Nashville: Original Soundtrack (Season 2, Volume 2) (Deluxe Edition) [MP3 320]/09 - Clare Bowen - Come Find Me.mp3 /Volumes/Master/XLD Rips/Compilations - The Music of Nashville: Original Soundtrack (Season 2, Volume 2) (Deluxe Edition) [MP3 V0]/09 - Clare Bowen - Come Find Me.mp3 /Volumes/Master/XLD Rips/Compilations - The Music of Nashville: Original Soundtrack (Season 2, Volume 2) (Deluxe Edition) [MP3 V2]/09 - Clare Bowen - Come Find Me.mp3 Pre-gap length : 00:00:61

Track gain : -5.61 dB Peak : 0.944153 CRC32 hash (test run) : E4AB288A CRC32 hash : E4AB288A CRC32 hash (skip zero) : 0568D68B AccurateRip v1 signature : 12649968 AccurateRip v2 signature : 151745DF ->Track not present in AccurateRip database. Statistics Read error : 0 Jitter error (maybe fixed) : 0 Retry sector count : 0 Damaged sector count : 0

Track 10 Filename : /Volumes/Master/XLD Rips/Compilations - The Music of Nashville: Original Soundtrack (Season 2, Volume 2) (Deluxe Edition) [ALAC]/10 - Will Chase, Charles Esten, Chris Carmack - It's on Tonight.m4a /Volumes/Master/XLD Rips/Compilations - The Music of Nashville: Original Soundtrack (Season 2, Volume 2) (Deluxe Edition) [FLAC]/10 - Will Chase, Charles Esten, Chris Carmack - It's on Tonight.flac /Volumes/Master/XLD Rips/Compilations - The Music of Nashville: Original Soundtrack (Season 2, Volume 2) (Deluxe Edition) [MP3 320]/10 - Will Chase, Charles Esten, Chris Carmack - It's on Tonight.mp3 /Volumes/Master/XLD Rips/Compilations - The Music of Nashville: Original Soundtrack (Season 2, Volume 2) (Deluxe Edition) [MP3 V0]/10 - Will Chase, Charles Esten, Chris Carmack - It's on Tonight.mp3 /Volumes/Master/XLD Rips/Compilations - The Music of Nashville: Original Soundtrack (Season 2, Volume 2) (Deluxe Edition) [MP3 V2]/10 - Will Chase, Charles Esten, Chris Carmack - It's on Tonight.mp3 Pre-gap length : 00:00:45

Track gain : -8.70 dB Peak : 0.922668 CRC32 hash (test run) : 5B4E4FCD CRC32 hash : 5B4E4FCD CRC32 hash (skip zero) : B2FDB75C AccurateRip v1 signature : 9742C831 AccurateRip v2 signature : D6ECA12F ->Track not present in AccurateRip database. Statistics Read error : 0 Jitter error (maybe fixed) : 0 Retry sector count : 0 Damaged sector count : 0

Track 11 Filename : /Volumes/Master/XLD Rips/Compilations - The Music of Nashville: Original Soundtrack (Season 2, Volume 2) (Deluxe Edition) [ALAC]/11 - Sam Palladio, Chaley Rose, Jonathan Jackson - Hennessee.m4a /Volumes/Master/XLD Rips/Compilations - The Music of Nashville: Original Soundtrack (Season 2, Volume 2) (Deluxe Edition) [FLAC]/11 - Sam Palladio, Chaley Rose, Jonathan Jackson - Hennessee.flac /Volumes/Master/XLD Rips/Compilations - The Music of Nashville: Original Soundtrack (Season 2, Volume 2) (Deluxe Edition) [MP3 320]/11 - Sam Palladio, Chaley Rose, Jonathan Jackson - Hennessee.mp3 /Volumes/Master/XLD Rips/Compilations - The Music of Nashville: Original Soundtrack (Season 2, Volume 2) (Deluxe Edition) [MP3 V0]/11 - Sam Palladio, Chaley Rose, Jonathan Jackson - Hennessee.mp3 /Volumes/Master/XLD Rips/Compilations - The Music of Nashville: Original Soundtrack (Season 2, Volume 2) (Deluxe Edition) [MP3 V2]/11 - Sam Palladio, Chaley Rose, Jonathan Jackson - Hennessee.mp3 Pre-gap length : 00:00:32

Track gain : -6.91 dB Peak : 0.944122 CRC32 hash (test run) : 1E807EBE CRC32 hash : 1E807EBE CRC32 hash (skip zero) : DA4D7128 AccurateRip v1 signature : 7193DB3A AccurateRip v2 signature : CFE2EF1A ->Track not present in AccurateRip database. Statistics Read error : 0 Jitter error (maybe fixed) : 0 Retry sector count : 0 Damaged sector count : 0

Track 12 Filename : /Volumes/Master/XLD Rips/Compilations - The Music of Nashville: Original Soundtrack (Season 2, Volume 2) (Deluxe Edition) [ALAC]/12 - Aubrey Peeples - It All Slows Down.m4a /Volumes/Master/XLD Rips/Compilations - The Music of Nashville: Original Soundtrack (Season 2, Volume 2) (Deluxe Edition) [FLAC]/12 - Aubrey Peeples - It All Slows Down.flac /Volumes/Master/XLD Rips/Compilations - The Music of Nashville: Original Soundtrack (Season 2, Volume 2) (Deluxe Edition) [MP3 320]/12 - Aubrey Peeples - It All Slows Down.mp3 /Volumes/Master/XLD Rips/Compilations - The Music of Nashville: Original Soundtrack (Season 2, Volume 2) (Deluxe Edition) [MP3 V0]/12 - Aubrey Peeples - It All Slows Down.mp3 /Volumes/Master/XLD Rips/Compilations - The Music of Nashville: Original Soundtrack (Season 2, Volume 2) (Deluxe Edition) [MP3 V2]/12 - Aubrey Peeples - It All Slows Down.mp3 Pre-gap length : 00:00:28

Track gain : -9.54 dB Peak : 0.933289 CRC32 hash (test run) : 8526D756 CRC32 hash : 8526D756 CRC32 hash (skip zero) : BF00E429 AccurateRip v1 signature : 92DA90CB AccurateRip v2 signature : 5D396335 ->Track not present in AccurateRip database. Statistics Read error : 0 Jitter error (maybe fixed) : 0 Retry sector count : 0 Damaged sector count : 0

Track 13 Filename : /Volumes/Master/XLD Rips/Compilations - The Music of Nashville: Original Soundtrack (Season 2, Volume 2) (Deluxe Edition) [ALAC]/13 - Chris Carmack - Is That Who I Am.m4a /Volumes/Master/XLD Rips/Compilations - The Music of Nashville: Original Soundtrack (Season 2, Volume 2) (Deluxe Edition) [FLAC]/13 - Chris Carmack - Is That Who I Am.flac /Volumes/Master/XLD Rips/Compilations - The Music of Nashville: Original Soundtrack (Season 2, Volume 2) (Deluxe Edition) [MP3 320]/13 - Chris Carmack - Is That Who I Am.mp3 /Volumes/Master/XLD Rips/Compilations - The Music of Nashville: Original Soundtrack (Season 2, Volume 2) (Deluxe Edition) [MP3 V0]/13 - Chris Carmack - Is That Who I Am.mp3 /Volumes/Master/XLD Rips/Compilations - The Music of Nashville: Original Soundtrack (Season 2, Volume 2) (Deluxe Edition) [MP3 V2]/13 - Chris Carmack - Is That Who I Am.mp3 Pre-gap length : 00:01:32

Track gain : -7.59 dB Peak : 0.944153 CRC32 hash (test run) : E53BF28D CRC32 hash : E53BF28D CRC32 hash (skip zero) : 69C0B094 AccurateRip v1 signature : 60EC2D16 AccurateRip v2 signature : 1A511222 ->Track not present in AccurateRip database. Statistics Read error : 0 Jitter error (maybe fixed) : 0 Retry sector count : 0 Damaged sector count : 0

Track 14 Filename : /Volumes/Master/XLD Rips/Compilations - The Music of Nashville: Original Soundtrack (Season 2, Volume 2) (Deluxe Edition) [ALAC]/14 - Connie Britton - This Time.m4a /Volumes/Master/XLD Rips/Compilations - The Music of Nashville: Original Soundtrack (Season 2, Volume 2) (Deluxe Edition) [FLAC]/14 - Connie Britton - This Time.flac /Volumes/Master/XLD Rips/Compilations - The Music of Nashville: Original Soundtrack (Season 2, Volume 2) (Deluxe Edition) [MP3 320]/14 - Connie Britton - This Time.mp3 /Volumes/Master/XLD Rips/Compilations - The Music of Nashville: Original Soundtrack (Season 2, Volume 2) (Deluxe Edition) [MP3 V0]/14 - Connie Britton - This Time.mp3 /Volumes/Master/XLD Rips/Compilations - The Music of Nashville: Original Soundtrack (Season 2, Volume 2) (Deluxe Edition) [MP3 V2]/14 - Connie Britton - This Time.mp3 Pre-gap length : 00:00:61

Track gain : -8.37 dB Peak : 0.944183 CRC32 hash (test run) : A908EA11 CRC32 hash : A908EA11 CRC32 hash (skip zero) : 01080485 AccurateRip v1 signature : 6D8E4DAA AccurateRip v2 signature : 8C1A841A ->Track not present in AccurateRip database. Statistics Read error : 0 Jitter error (maybe fixed) : 0 Retry sector count : 0 Damaged sector count : 0

Track 15 Filename : /Volumes/Master/XLD Rips/Compilations - The Music of Nashville: Original Soundtrack (Season 2, Volume 2) (Deluxe Edition) [ALAC]/15 - Clare Bowen - Black Roses.m4a /Volumes/Master/XLD Rips/Compilations - The Music of Nashville: Original Soundtrack (Season 2, Volume 2) (Deluxe Edition) [FLAC]/15 - Clare Bowen - Black Roses.flac /Volumes/Master/XLD Rips/Compilations - The Music of Nashville: Original Soundtrack (Season 2, Volume 2) (Deluxe Edition) [MP3 320]/15 - Clare Bowen - Black Roses.mp3 /Volumes/Master/XLD Rips/Compilations - The Music of Nashville: Original Soundtrack (Season 2, Volume 2) (Deluxe Edition) [MP3 V0]/15 - Clare Bowen - Black Roses.mp3 /Volumes/Master/XLD Rips/Compilations - The Music of Nashville: Original Soundtrack (Season 2, Volume 2) (Deluxe Edition) [MP3 V2]/15 - Clare Bowen - Black Roses.mp3 Pre-gap length : 00:01:44

Track gain : -8.51 dB Peak : 0.944183 CRC32 hash (test run) : 381C0CEA CRC32 hash : 381C0CEA CRC32 hash (skip zero) : CCE7B31A AccurateRip v1 signature : C8E5C138 AccurateRip v2 signature : 0F4A8B86 ->Track not present in AccurateRip database. Statistics Read error : 0 Jitter error (maybe fixed) : 0 Retry sector count : 0 Damaged sector count : 0

Track 16 Filename : /Volumes/Master/XLD Rips/Compilations - The Music of Nashville: Original Soundtrack (Season 2, Volume 2) (Deluxe Edition) [ALAC]/16 - Hayden Panettiere - Don't Put Dirt on My Grave Just Yet.m4a /Volumes/Master/XLD Rips/Compilations - The Music of Nashville: Original Soundtrack (Season 2, Volume 2) (Deluxe Edition) [FLAC]/16 - Hayden Panettiere - Don't Put Dirt on My Grave Just Yet.flac /Volumes/Master/XLD Rips/Compilations - The Music of Nashville: Original Soundtrack (Season 2, Volume 2) (Deluxe Edition) [MP3 320]/16 - Hayden Panettiere - Don't Put Dirt on My Grave Just Yet.mp3 /Volumes/Master/XLD Rips/Compilations - The Music of Nashville: Original Soundtrack (Season 2, Volume 2) (Deluxe Edition) [MP3 V0]/16 - Hayden Panettiere - Don't Put Dirt on My Grave Just Yet.mp3 /Volumes/Master/XLD Rips/Compilations - The Music of Nashville: Original Soundtrack (Season 2, Volume 2) (Deluxe Edition) [MP3 V2]/16 - Hayden Panettiere - Don't Put Dirt on My Grave Just Yet.mp3 Pre-gap length : 00:01:45

Track gain : -10.46 dB Peak : 0.922699 CRC32 hash (test run) : 25ACED2A CRC32 hash : 25ACED2A CRC32 hash (skip zero) : 97E91D4B AccurateRip v1 signature : 88B1801A AccurateRip v2 signature : 40F463A3 ->Track not present in AccurateRip database. Statistics Read error : 0 Jitter error (maybe fixed) : 0 Retry sector count : 0 Damaged sector count : 0

Track 17 Filename : /Volumes/Master/XLD Rips/Compilations - The Music of Nashville: Original Soundtrack (Season 2, Volume 2) (Deluxe Edition) [ALAC]/17 - Charles Esten, Connie Britton, Lennon Stella, Maisy Stella - A Life That's Good.m4a /Volumes/Master/XLD Rips/Compilations - The Music of Nashville: Original Soundtrack (Season 2, Volume 2) (Deluxe Edition) [FLAC]/17 - Charles Esten, Connie Britton, Lennon Stella, Maisy Stella - A Life That's Good.flac /Volumes/Master/XLD Rips/Compilations - The Music of Nashville: Original Soundtrack (Season 2, Volume 2) (Deluxe Edition) [MP3 320]/17 - Charles Esten, Connie Britton, Lennon Stella, Maisy Stella - A Life That's Good.mp3 /Volumes/Master/XLD Rips/Compilations - The Music of Nashville: Original Soundtrack (Season 2, Volume 2) (Deluxe Edition) [MP3 V0]/17 - Charles Esten, Connie Britton, Lennon Stella, Maisy Stella - A Life That's Good.mp3 /Volumes/Master/XLD Rips/Compilations - The Music of Nashville: Original Soundtrack (Season 2, Volume 2) (Deluxe Edition) [MP3 V2]/17 - Charles Esten, Connie Britton, Lennon Stella, Maisy Stella - A Life That's Good.mp3 Pre-gap length : 00:01:45

Track gain : -6.32 dB Peak : 0.933319 CRC32 hash (test run) : 382F5C49 CRC32 hash : 382F5C49 CRC32 hash (skip zero) : 9EF39BAF AccurateRip v1 signature : 19DC1911 AccurateRip v2 signature : D347CF77 ->Track not present in AccurateRip database. Statistics Read error : 0 Jitter error (maybe fixed) : 0 Retry sector count : 0 Damaged sector count : 0

Track 18 Filename : /Volumes/Master/XLD Rips/Compilations - The Music of Nashville: Original Soundtrack (Season 2, Volume 2) (Deluxe Edition) [ALAC]/18 - Chaley Rose - Carry You Home.m4a /Volumes/Master/XLD Rips/Compilations - The Music of Nashville: Original Soundtrack (Season 2, Volume 2) (Deluxe Edition) [FLAC]/18 - Chaley Rose - Carry You Home.flac /Volumes/Master/XLD Rips/Compilations - The Music of Nashville: Original Soundtrack (Season 2, Volume 2) (Deluxe Edition) [MP3 320]/18 - Chaley Rose - Carry You Home.mp3 /Volumes/Master/XLD Rips/Compilations - The Music of Nashville: Original Soundtrack (Season 2, Volume 2) (Deluxe Edition) [MP3 V0]/18 - Chaley Rose - Carry You Home.mp3 /Volumes/Master/XLD Rips/Compilations - The Music of Nashville: Original Soundtrack (Season 2, Volume 2) (Deluxe Edition) [MP3 V2]/18 - Chaley Rose - Carry You Home.mp3 Pre-gap length : 00:01:57

Track gain : -8.39 dB Peak : 0.944183 CRC32 hash (test run) : FC2ED0B7 CRC32 hash : FC2ED0B7 CRC32 hash (skip zero) : 1D7A7146 AccurateRip v1 signature : C2C70653 AccurateRip v2 signature : AA2E4613 ->Track not present in AccurateRip database. Statistics Read error : 0 Jitter error (maybe fixed) : 0 Retry sector count : 0 Damaged sector count : 0

Track 19 Filename : /Volumes/Master/XLD Rips/Compilations - The Music of Nashville: Original Soundtrack (Season 2, Volume 2) (Deluxe Edition) [ALAC]/19 - Chris Carmack - Then I Was Loved by You.m4a /Volumes/Master/XLD Rips/Compilations - The Music of Nashville: Original Soundtrack (Season 2, Volume 2) (Deluxe Edition) [FLAC]/19 - Chris Carmack - Then I Was Loved by You.flac /Volumes/Master/XLD Rips/Compilations - The Music of Nashville: Original Soundtrack (Season 2, Volume 2) (Deluxe Edition) [MP3 320]/19 - Chris Carmack - Then I Was Loved by You.mp3 /Volumes/Master/XLD Rips/Compilations - The Music of Nashville: Original Soundtrack (Season 2, Volume 2) (Deluxe Edition) [MP3 V0]/19 - Chris Carmack - Then I Was Loved by You.mp3 /Volumes/Master/XLD Rips/Compilations - The Music of Nashville: Original Soundtrack (Season 2, Volume 2) (Deluxe Edition) [MP3 V2]/19 - Chris Carmack - Then I Was Loved by You.mp3 Pre-gap length : 00:01:05

Track gain : -7.81 dB Peak : 0.943909 CRC32 hash (test run) : 2FE6D731 CRC32 hash : 2FE6D731 CRC32 hash (skip zero) : 33BA512F AccurateRip v1 signature : 3AFA294B AccurateRip v2 signature : 3E091BA6 ->Track not present in AccurateRip database. Statistics Read error : 0 Jitter error (maybe fixed) : 0 Retry sector count : 0 Damaged sector count : 0

Track 20 Filename : /Volumes/Master/XLD Rips/Compilations - The Music of Nashville: Original Soundtrack (Season 2, Volume 2) (Deluxe Edition) [ALAC]/20 - Clare Bowen - Falling.m4a /Volumes/Master/XLD Rips/Compilations - The Music of Nashville: Original Soundtrack (Season 2, Volume 2) (Deluxe Edition) [FLAC]/20 - Clare Bowen - Falling.flac /Volumes/Master/XLD Rips/Compilations - The Music of Nashville: Original Soundtrack (Season 2, Volume 2) (Deluxe Edition) [MP3 320]/20 - Clare Bowen - Falling.mp3 /Volumes/Master/XLD Rips/Compilations - The Music of Nashville: Original Soundtrack (Season 2, Volume 2) (Deluxe Edition) [MP3 V0]/20 - Clare Bowen - Falling.mp3 /Volumes/Master/XLD Rips/Compilations - The Music of Nashville: Original Soundtrack (Season 2, Volume 2) (Deluxe Edition) [MP3 V2]/20 - Clare Bowen - Falling.mp3 Pre-gap length : 00:01:13

Track gain : -6.25 dB Peak : 0.944061 CRC32 hash (test run) : EDB89B30 CRC32 hash : EDB89B30 CRC32 hash (skip zero) : 2D069935 AccurateRip v1 signature : 8B078829 AccurateRip v2 signature : 3BCFB831 ->Track not present in AccurateRip database. Statistics Read error : 0 Jitter error (maybe fixed) : 0 Retry sector count : 0 Damaged sector count : 0

Track 21 Filename : /Volumes/Master/XLD Rips/Compilations - The Music of Nashville: Original Soundtrack (Season 2, Volume 2) (Deluxe Edition) [ALAC]/21 - Hayden Panettiere - Don't Put Dirt on My Grave Just Yet (Orchestral Version).m4a /Volumes/Master/XLD Rips/Compilations - The Music of Nashville: Original Soundtrack (Season 2, Volume 2) (Deluxe Edition) [FLAC]/21 - Hayden Panettiere - Don't Put Dirt on My Grave Just Yet (Orchestral Version).flac /Volumes/Master/XLD Rips/Compilations - The Music of Nashville: Original Soundtrack (Season 2, Volume 2) (Deluxe Edition) [MP3 320]/21 - Hayden Panettiere - Don't Put Dirt on My Grave Just Yet (Orchestral Version).mp3 /Volumes/Master/XLD Rips/Compilations - The Music of Nashville: Original Soundtrack (Season 2, Volume 2) (Deluxe Edition) [MP3 V0]/21 - Hayden Panettiere - Don't Put Dirt on My Grave Just Yet (Orchestral Version).mp3 /Volumes/Master/XLD Rips/Compilations - The Music of Nashville: Original Soundtrack (Season 2, Volume 2) (Deluxe Edition) [MP3 V2]/21 - Hayden Panettiere - Don't Put Dirt on My Grave Just Yet (Orchestral Version).mp3 Pre-gap length : 00:01:58

Track gain : -8.83 dB Peak : 0.922424 CRC32 hash (test run) : BA068F00 CRC32 hash : BA068F00 CRC32 hash (skip zero) : 5CB811A1 AccurateRip v1 signature : 1EE42AFD AccurateRip v2 signature : 3C43DE2D ->Track not present in AccurateRip database. Statistics Read error : 0 Jitter error (maybe fixed) : 0 Retry sector count : 0 Damaged sector count : 0

No errors occurred

End of status report

-----BEGIN XLD SIGNATURE-----Ow96859mk0i5aMyjSFkt6VEPromgb.Rdst62yVKeeGomBfcnhXEfnM5HrliobrkOYckCsVpm40a2AK04MWiZdzY4IBaVKG7awAoZFGu-----END XLD SIGNATURE-----
TITLE "The Music of Nashville: Original Soundtrack (Season 2, Volume 2) (Deluxe Edition)"CATALOG 0843930012046REM GENRE "Country"REM DATE "2014"REM DISCID 07112915REM REPLAYGAIN_ALBUM_GAIN -8.51 dBREM REPLAYGAIN_ALBUM_PEAK 0.944183REM COMPILATION TRUEFILE "01 - Connie Britton and Hayden Panettiere - He Ain't Gonna Change.flac" WAVE TRACK 01 AUDIO TITLE "He Ain't Gonna Change" PERFORMER "Connie Britton and Hayden Panettiere" SONGWRITER "Al Anderson, Karyn Rochelle" ISRC USJ681411300 REM REPLAYGAIN_TRACK_GAIN -8.42 dB REM REPLAYGAIN_TRACK_PEAK 0.944183 INDEX 01 00:00:00 TRACK 02 AUDIO TITLE "I Ain't Leavin' Without Your Love" PERFORMER "Sam Palladio, Chaley Rose, Jonathan Jackson" SONGWRITER "Justin Davis, Sarah Zimmerman, Cary Barlowe" ISRC USJ681411280 REM REPLAYGAIN_TRACK_GAIN -8.17 dB REM REPLAYGAIN_TRACK_PEAK 0.944183 INDEX 00 03:33:69FILE "02 - Sam Palladio, Chaley Rose, Jonathan Jackson - I Ain't Leavin' Without Your Love.flac" WAVE INDEX 01 00:00:00 TRACK 03 AUDIO TITLE "Believing" PERFORMER "Charles Esten, Lennon Stella, Maisy Stella" SONGWRITER "Emily Shackleton, Kate York, Tami Hinesh" ISRC USJ681411130 REM REPLAYGAIN_TRACK_GAIN -7.33 dB REM REPLAYGAIN_TRACK_PEAK 0.944183 INDEX 00 02:44:55FILE "03 - Charles Esten, Lennon Stella, Maisy Stella - Believing.flac" WAVE INDEX 01 00:00:00 TRACK 04 AUDIO TITLE "Hurtin' on Me" PERFORMER "Chris Carmack" SONGWRITER "Josh Osborne, Greg Bates, Shane McAnally" ISRC USJ681411200 REM REPLAYGAIN_TRACK_GAIN -9.39 dB REM REPLAYGAIN_TRACK_PEAK 0.933380 INDEX 00 03:15:57FILE "04 - Chris Carmack - Hurtin' on Me.flac" WAVE INDEX 01 00:00:00 TRACK 05 AUDIO TITLE "Lately" PERFORMER "Sam Palladio and Clare Bowen" SONGWRITER "Sarah Siskind, Sally Barris, Ashley Monroe" ISRC USJ681311670 REM REPLAYGAIN_TRACK_GAIN -6.42 dB REM REPLAYGAIN_TRACK_PEAK 0.944153 INDEX 00 03:27:35FILE "05 - Sam Palladio and Clare Bowen - Lately.flac" WAVE INDEX 01 00:00:00 TRACK 06 AUDIO TITLE "Wrong for the Right Reasons" PERFORMER "Connie Britton" SONGWRITER "Rosi Golan, Natalie Hemby, Chris DeStefano" ISRC USJ681411210 REM REPLAYGAIN_TRACK_GAIN -7.11 dB REM REPLAYGAIN_TRACK_PEAK 0.912109 INDEX 00 03:44:52FILE "06 - Connie Britton - Wrong for the Right Reasons.flac" WAVE INDEX 01 00:00:00 TRACK 07 AUDIO TITLE "Everything I'll Ever Need" PERFORMER "Hayden Panettiere and Jonathan Jackson" SONGWRITER "Kate York, Dylan Altman" ISRC USJ681411140 REM REPLAYGAIN_TRACK_GAIN -6.74 dB REM REPLAYGAIN_TRACK_PEAK 0.944153 INDEX 00 03:18:45FILE "07 - Hayden Panettiere and Jonathan Jackson - Everything I'll Ever Need.flac" WAVE INDEX 01 00:00:00 TRACK 08 AUDIO TITLE "Joy Parade" PERFORMER "Lennon Stella and Maisy Stella" SONGWRITER "Jill Andrews, Josh Leo" ISRC USJ681411080 REM REPLAYGAIN_TRACK_GAIN -5.82 dB REM REPLAYGAIN_TRACK_PEAK 0.944153 INDEX 00 02:18:39FILE "08 - Lennon Stella and Maisy Stella - Joy Parade.flac" WAVE INDEX 01 00:00:00 TRACK 09 AUDIO TITLE "Come Find Me" PERFORMER "Clare Bowen" SONGWRITER "Sarah Buxton, John Scott Sherill" ISRC USJ681411160 REM REPLAYGAIN_TRACK_GAIN -5.61 dB REM REPLAYGAIN_TRACK_PEAK 0.944153 INDEX 00 03:09:59FILE "09 - Clare Bowen - Come Find Me.flac" WAVE INDEX 01 00:00:00 TRACK 10 AUDIO TITLE "It's on Tonight" PERFORMER "Will Chase, Charles Esten, Chris Carmack" SONGWRITER "Dustin Lynch, Brett Beavers, David Lee Murphy" ISRC USJ681411090 REM REPLAYGAIN_TRACK_GAIN -8.70 dB REM REPLAYGAIN_TRACK_PEAK 0.922668 INDEX 00 04:34:03FILE "10 - Will Chase, Charles Esten, Chris Carmack - It's on Tonight.flac" WAVE INDEX 01 00:00:00 TRACK 11 AUDIO TITLE "Hennessee" PERFORMER "Sam Palladio, Chaley Rose, Jonathan Jackson" SONGWRITER "Joel King, Ricky Young, Eli Wulfmeier, Taylor Burns, Chris Hennessee" ISRC USJ681411050 REM REPLAYGAIN_TRACK_GAIN -6.91 dB REM REPLAYGAIN_TRACK_PEAK 0.944122 INDEX 00 03:42:25FILE "11 - Sam Palladio, Chaley Rose, Jonathan Jackson - Hennessee.flac" WAVE INDEX 01 00:00:00 TRACK 12 AUDIO TITLE "It All Slows Down" PERFORMER "Aubrey Peeples" SONGWRITER "Karyn Rochelle, Sarah Siskind" ISRC USJ681411190 REM REPLAYGAIN_TRACK_GAIN -9.54 dB REM REPLAYGAIN_TRACK_PEAK 0.933289 INDEX 00 03:26:70FILE "12 - Aubrey Peeples - It All Slows Down.flac" WAVE INDEX 01 00:00:00 TRACK 13 AUDIO TITLE "Is That Who I Am" PERFORMER "Chris Carmack" SONGWRITER "Aaron Benward, Shaun Shankel, Steve Moakler" ISRC USJ681411150 REM REPLAYGAIN_TRACK_GAIN -7.59 dB REM REPLAYGAIN_TRACK_PEAK 0.944153 INDEX 00 03:07:54FILE "13 - Chris Carmack - Is That Who I Am.flac" WAVE INDEX 01 00:00:00 TRACK 14 AUDIO TITLE "This Time" PERFORMER "Connie Britton" SONGWRITER "Allison Moorer, Jeffrey Steele" ISRC USJ681311680 REM REPLAYGAIN_TRACK_GAIN -8.37 dB REM REPLAYGAIN_TRACK_PEAK 0.944183 INDEX 00 04:26:05FILE "14 - Connie Britton - This Time.flac" WAVE INDEX 01 00:00:00 TRACK 15 AUDIO TITLE "Black Roses" PERFORMER "Clare Bowen" SONGWRITER "Lucy Schwartz" ISRC USJ681411040 REM REPLAYGAIN_TRACK_GAIN -8.51 dB REM REPLAYGAIN_TRACK_PEAK 0.944183 INDEX 00 02:51:32FILE "15 - Clare Bowen - Black Roses.flac" WAVE INDEX 01 00:00:00 TRACK 16 AUDIO TITLE "Don't Put Dirt on My Grave Just Yet" PERFORMER "Hayden Panettiere" SONGWRITER "Trent Dabbs, Caitlyn Smith" ISRC USJ681411000 REM REPLAYGAIN_TRACK_GAIN -10.46 dB REM REPLAYGAIN_TRACK_PEAK 0.922699 INDEX 00 03:42:00FILE "16 - Hayden Panettiere - Don't Put Dirt on My Grave Just Yet.flac" WAVE INDEX 01 00:00:00 TRACK 17 AUDIO TITLE "A Life That's Good" PERFORMER "Charles Esten, Connie Britton, Lennon Stella, Maisy Stella" SONGWRITER "Sarah Siskind" ISRC USJ681411230 REM REPLAYGAIN_TRACK_GAIN -6.32 dB REM REPLAYGAIN_TRACK_PEAK 0.933319 INDEX 00 03:09:42FILE "17 - Charles Esten, Connie Britton, Lennon Stella, Maisy Stella - A Life That's Good.flac" WAVE INDEX 01 00:00:00 TRACK 18 AUDIO TITLE "Carry You Home" PERFORMER "Chaley Rose" SONGWRITER "Troy Verges, Caitlyn Smith, Gordie Sampson" ISRC USJ681411170 REM REPLAYGAIN_TRACK_GAIN -8.39 dB REM REPLAYGAIN_TRACK_PEAK 0.944183 INDEX 00 03:29:20FILE "18 - Chaley Rose - Carry You Home.flac" WAVE INDEX 01 00:00:00 TRACK 19 AUDIO TITLE "Then I Was Loved by You" PERFORMER "Chris Carmack" SONGWRITER "Kalisa Ewing, Casey Wood" ISRC USJ681411220 REM REPLAYGAIN_TRACK_GAIN -7.81 dB REM REPLAYGAIN_TRACK_PEAK 0.943909 INDEX 00 03:58:44FILE "19 - Chris Carmack - Then I Was Loved by You.flac" WAVE INDEX 01 00:00:00 TRACK 20 AUDIO TITLE "Falling" PERFORMER "Clare Bowen" SONGWRITER "Gareth Dunlop, Kim Richey" ISRC USJ681411290 REM REPLAYGAIN_TRACK_GAIN -6.25 dB REM REPLAYGAIN_TRACK_PEAK 0.944061 INDEX 00 04:18:25FILE "20 - Clare Bowen - Falling.flac" WAVE INDEX 01 00:00:00 TRACK 21 AUDIO TITLE "Don't Put Dirt on My Grave Just Yet (Orchestral Version)" PERFORMER "Hayden Panettiere" SONGWRITER "Trent Dabbs, Caitlyn Smith" ISRC USJ681411270 REM REPLAYGAIN_TRACK_GAIN -8.83 dB REM REPLAYGAIN_TRACK_PEAK 0.922424 INDEX 00 03:21:35FILE "21 - Hayden Panettiere - Don't Put Dirt on My Grave Just Yet (Orchestral Version).flac" WAVE INDEX 01 00:00:00

MP3: [url=...4904885](Soundtrack) Нэшвилл / Nashville Season 2, Vol. 2 (Deluxe Edition) (Callie Khouri) - 2014, MP3, 320 kbps[/url]


Трекер:  [ 03-Янв-2015 12:00 ]

  

Скачать .torrent

Размер .torrent файла 21 KB


Размер: 486 MB
Хэш (hash) релиза: eeddc2191361555717e00277f5e6b20f16ae7f0c

Торренты, похожие на Нэшвилл Nashville Season 2, Vol. 2 скачать торрент

Форум Название Автор Размер S L Добавлен
Саундтреки к фильмам и мультфильмам (mp3) ·· (Soundtrack) Нэшвилл / Nashville Season 2, Vol. 2 (Deluxe Edition) (Callie Khouri) - 2014, MP3, 320 kbps Galfimbul 175873185168 MB 0 0 1420156151

02:49

2-Янв-15

Саундтреки к фильмам и мультфильмам (mp3) ·· (Soundtrack) Нэшвилл / Nashville - Season 1 Vol 2 - 2013, MP3, 320 kbps Galfimbul 9074160087 MB 0 0 1369235248

18:07

22-Май-13

Еще никто не оставлял запись к записи скачать торрент Нэшвилл Nashville Season 2, Vol. 2 . Будь первым!

!Обратная связь