Скачать через торрент Идолмастер бесплатно Аниме Все серии на русском torrent

Если у вас наблюдаются проблемы со скриншотами, переходом по ссылками, скачиванием торрентов - проблемы в блокировщике рекламы AdBlock. #хорошегоДня!


Статистика раздачи
Размер:  235 MB   |    Зарегистрирован:  2 года 11 месяцев   |    .torrent скачан:  35 раз   |   
Раздают:  1  
   
Загрузка...
 
Автор Сообщение

Galfimbul

avatar Galfimbul


Идолмастер (второй сезон) / Idolmaster: Cinderella Girls

Страна: Япония
Год выпуска: 2015 г.
Жанр: приключения
Тип: TV
Продолжительность: 12+ (25 мин.)

Режиссер: Такао Норико
Студия: Aniplex, A-1 Pictures, Namco Bandai Games

Описание:
В детстве Узуки Шимамура, как и многие девочки, мечтала очутиться в сказке про «Золушку» и по мановению волшебной палочки превратиться в прекрасную принцессу. В погоне за мечтой о сверкающих дворцах и роскошных платьях она решила приложить все усилия к тому, чтобы стать идолом и выступать на сцене на радость публике. К сожалению, многочисленные прослушивания в компании «Синдерелла» долгое время не давали результатов, и Узуки продолжала тренировки на одном энтузиазме.

Но однажды ее молитвы были услышаны – в дверь танцевальной студии вошел продюсер из «Синдереллы», объявивший, что компания намерена запустить новый проект. Им станет девичья поп-группа из трех идолов, и Узуки – первая, кого продюсер выбрал, обратив внимания на ее улыбку. Немедленно дав согласие, она продолжила тренировки, предвкушая встречу с коллегами по группе, а продюсер тем временем начал поиски остальных двух участниц. Продюсеру, и его трем подопечным придется пройти огонь, воду и медные трубы, чтобы завоевать любовь зрителей и превратиться из Золушек в принцесс.

Качество: HDTVRip
Тип релиза: Без хардсаба
Формат видео: MP4
Наличие линковки: Нет
Релиз/Автор рипа: Ohys-Raws
Видео: H264, 1280x720, 1154 kbps, 23.976 fps, 8 bit
Аудио: AAC, 204 kbps, 48000 Hz, stereo Язык Японский
Субтитры: ass, внешние, Язык субтитров русский ;
Редактор: Aero [YakuSub Studio]
Оформление: Helge [YakuSub Studio]
Переводчик/Перевод песен: Nika_Elrik [YakuSub Studio]

Не забываем "благодарить" и писать комментарии. Это стимулирует дальнейшие раздачи.
General
Complete name                    : E:\ongoing\Dog Days''\[Ohys-Raws] Idolmaster Cinderella Girls - 01 (BS11 1280x720 x264 AAC).mp4
Format                           : MPEG-4
Format profile                   : Base Media
Codec ID                         : isom
File size                        : 234 MiB
Duration                         : 24mn 0s
Overall bit rate                 : 1 366 Kbps
Encoded date                     : UTC 2015-01-09 15:35:11
Tagged date                      : UTC 2015-01-09 15:35:11
Writing application              : ShanaEncoder

Video
ID                               : 1
Format                           : AVC
Format/Info                      : Advanced Video Codec
Format profile                   : Main@L4.1
Format settings, CABAC           : Yes
Format settings, ReFrames        : 4 frames
Format settings, GOP             : M=4, N=52
Codec ID                         : avc1
Codec ID/Info                    : Advanced Video Coding
Duration                         : 23mn 59s
Bit rate mode                    : Variable
Bit rate                         : 1 154 Kbps
Width                            : 1 280 pixels
Height                           : 720 pixels
Display aspect ratio             : 16:9
Frame rate mode                  : Variable
Frame rate                       : 23.976 fps
Minimum frame rate               : 10.000 fps
Maximum frame rate               : 24.390 fps
Color space                      : YUV
Chroma subsampling               : 4:2:0
Bit depth                        : 8 bits
Scan type                        : Progressive
Bits/(Pixel*Frame)               : 0.052
Stream size                      : 198 MiB (84%)
Writing library                  : x264 core 144 r2525kMod 40bb568
Encoding settings                : cabac=1 / ref=3 / deblock=1:0:0 / analyse=0x1:0x111 / me=hex / subme=7 / psy=1 / fade_compensate=0.00 / psy_rd=1.00:0.00 / mixed_ref=1 / me_range=16 / chroma_me=1 / trellis=1 / 8x8dct=0 / cqm=0 / deadzone=21,11 / fast_pskip=0 / chroma_qp_offset=-2 / threads=12 / lookahead_threads=2 / sliced_threads=0 / nr=0 / decimate=0 / interlaced=0 / bluray_compat=0 / constrained_intra=0 / fgo=0 / bframes=3 / b_pyramid=2 / b_adapt=1 / b_bias=0 / direct=1 / weightb=1 / open_gop=0 / weightp=2 / keyint=240 / keyint_min=1 / scenecut=40 / intra_refresh=0 / rc_lookahead=40 / rc=crf / mbtree=1 / crf=20.0000 / qcomp=0.60 / qpmin=10 / qpmax=26 / qpstep=8 / vbv_maxrate=8000 / vbv_bufsize=8000 / crf_max=0.0 / nal_hrd=none / filler=0 / ip_ratio=1.40 / aq=1:1.00
Encoded date                     : UTC 2015-01-09 15:35:11
Tagged date                      : UTC 2015-01-09 15:35:11
Color primaries                  : BT.709-5, BT.1361, IEC 61966-2-4, SMPTE RP177
Transfer characteristics         : BT.709-5, BT.1361
Matrix coefficients              : BT.709-5, BT.1361, IEC 61966-2-4 709, SMPTE RP177

Audio
ID                               : 2
Format                           : AAC
Format/Info                      : Advanced Audio Codec
Format profile                   : LC
Codec ID                         : 40
Duration                         : 24mn 0s
Bit rate mode                    : Constant
Bit rate                         : 204 Kbps
Channel(s)                       : 2 channels
Channel positions                : Front: L R
Sampling rate                    : 48.0 KHz
Compression mode                 : Lossy
Stream size                      : 35.0 MiB (15%)
Language                         : Japanese
Encoded date                     : UTC 2015-01-09 15:35:11
Tagged date                      : UTC 2015-01-09 15:35:11


Трекер:  [ 10-Янв-2015 22:30 ]

  

Скачать .torrent

Размер .torrent файла 19 KB


Размер: 235 MB
Хэш (hash) релиза: 4b102d820054ee66c778209fe3fef70ee0ced5b9
Подписка на обновления:

Торренты, похожие на Идолмастер скачать торрент

Форум Название Автор Размер S L Добавлен
Аниме | HD Rips ·· Идолмастер: По ту сторону света! / THE IDOLM@STER MOVIE Kagayaki no Mukougawa e! / The Idolmaster Movie: Kagayaki no Mukougawa e! [Movie] [Без хардсаба] [JAP+SUB] [2014 г., комедия, музыкальный, BDRip] [720p] Galfimbul 27791222672.59 GB 0 0 1473980191

01:56

16-Сен-16

Аниме | HD Rips ·· Идолмастер: Сияющий фестиваль / THE iDOLM@STER Shiny Festa / The Idolmaster: Shiny Festa [OVA] [3 из 3] [Без хардсаба] [JAP+SUB] [2012 г., комедия, музыкальный, BDRip] [720p] Galfimbul 12258400301.14 GB 0 0 1473917058

08:24

15-Сен-16

Аниме | HD Rips ·· Идолмастер: Сияющий фестиваль / The iDOLM@STER Shiny Festa / The Idolmaster: Shiny Festa [OVA] [3 из 3] [Без хардсаба] [JAP+SUB] [2012 г., комедия, музыкальный, BDRip] [720p] Galfimbul 12258400301.14 GB 0 0 1473915077

07:51

15-Сен-16

Аниме | HD Rips ·· Идолмастер: Сияющий фестиваль / The iDOLM@STER Shiny Festa / The Idolmaster: Shiny Festa [OVA] [3 из 3] [Без хардсаба] [JAP+SUB] [2012 г., комедия, музыкальный, BDRip] [720p] Galfimbul 12258400301.14 GB 0 0 1473886723

23:58

14-Сен-16

Аниме | DVD ·· Идолмастер Ксеноглоссия / Idolmaster Xenoglossia [TV] [RUS, JAP, SUB] [2007 г., приключения, фантастика, меха] [6 x DVD5] Galfimbul 2710910771225.25 GB 0 0 1459278083

22:01

29-Мар-16

Аниме | Rips ·· Идолмастер: Девушки-Золушки (ТВ-2) / Idolmaster: Cinderella Girls [TV] [01-12 из 12] [Без хардсаба] [RUS(ext), JAP, SUB] [2015 г., Комедия, Драма, Музыкальный, BDRip] [720p] Galfimbul 40131302743.74 GB 0 0 1458759178

21:52

23-Мар-16

Аниме | HD Rips ·· Идолмастер: Девушки-Золушки (сезон 2) / Idolmaster: Cinderella Girls 2nd [TV] [Без хардсаба] [JAP, SUB] [2015 г., музыкальный, идолы, комедия, HDTVRip] [720p] Galfimbul 34792247903.24 GB 0 0 1449947156

22:05

12-Дек-15

Аниме | Rips ·· Идолмастер: Девушки-Золушки (ТВ-2) / Idolmaster: Cinderella Girls / Mobamas [TV] [3 из 13] [Без хардсаба] [RUS(int), JAP+SUB] [2015 г., музыкальный, HDTVRip] [720p] Galfimbul 894085458853 MB 0 0 1439261656

05:54

11-Авг-15

Аниме | Rips ·· Идолмастер: Девушки-Золушки (ТВ-2) / Idolmaster: Cinderella Girls / Mobamas [TV] [1 из 13] [Без хардсаба] [JAP] [2015 г., музыкальный, HDTVRip] [720p] Galfimbul 190007317181 MB 0 0 1437946134

00:28

27-Июл-15

Аниме | Rips ·· Идолмастер: На яркую сторону! / THE IDOLM@STER: Kagayaki no Mukougawa e! / THE IDOLMASTER: To the Other Side of Light [Movie] [Хардсаб] [JAP, SUB] [2014 г., Музыкальный, комедия, драма., BDRip] [1080p] [HD] Galfimbul 28238226322.63 GB 0 0 1436392681

00:58

9-Июл-15

Аниме | Rips ·· Идолмастер: Девушки-Золушки / Idolmaster: Cinderella Girls [TV] [7 из 12] [Без хардсаба] [RUS(ext), JAP+SUB] [2015 г., музыкальный, HDTVRip] [720p] Galfimbul 15957600401.49 GB 0 0 1425928641

22:17

9-Мар-15

Аниме | HD Rips ·· Идолмастер: Девушки-Золушки / Idolmaster: Cinderella Girls (Такао Норико) [TV+Special] [7+1 из 12+1] [Без хардсаба] [JAP, SUB] [2015 г., музыкальный, идолы, комедия, HDTVRip] [720p] Galfimbul 23338481002.17 GB 0 0 1425304008

16:46

2-Мар-15

Аниме | HD Rips ·· Идолмастер: Девушки-Золушки / Idolmaster: Cinderella Girls (Такао Норико) [TV] [01 из 12] [Без хардсаба] [JAP, SUB] [2015 г., приключения, HDTVRip] [720p] Galfimbul 247921994236 MB 0 0 1421029012

05:16

12-Янв-15

Аниме | HD Rips ·· Тот, кто зажигает звёзды / Идолмастер / The Idolmaster / THE iDOLM@STER (Нисигори Ацуси) [TV] [26 из 26] [без хардсаба] [RUS(ext), JAP+SUB] [2011 г., музыкальный, BDRemux] [1080p] Galfimbul 170543522557158.83 GB 0 0 1409436062

01:01

31-Авг-14

Аниме | HD Rips ·· Тот, кто зажигает звёзды / Идолмастер / The Idolmaster / THE iDOLM@STER (Нисигори Ацуси) [TV] [26 из 26] [без хардсаба] [RUS(ext), JAP+SUB] [2011 г., музыкальный, BDRip] [720p] Polarnik 2395052653322.31 GB 0 0 1374093021

23:30

17-Июл-13

Аниме | Rips ·· Идолмастер / The Idolmaster / THE iDOLM@STER [TV] [1-20 из >24] [Без хардсаба] [JAP+SUB] [2011., музыкальный, HDTVRip] [480p] Gawl99 42316739463.94 GB 0 0 1322682314

22:45

30-Ноя-11

Еще никто не оставлял запись к записи скачать торрент Идолмастер . Будь первым!

!Обратная связь