Скачать через торрент музыку Враг мой Enemy Mine бесплатно без регистрации torrent

Если у вас наблюдаются проблемы со скриншотами, переходом по ссылками, скачиванием торрентов - проблемы в блокировщике рекламы AdBlock. #хорошегоДня!


Статистика раздачи
Размер:  448 MB   |    Зарегистрирован:  2 года 11 месяцев   |    .torrent скачан:  42 раза   |   
Раздают:  1  
   
Загрузка...
 
Автор Сообщение

Galfimbul

avatar Galfimbul


Враг мой / Enemy Mine
Жанр: Score
Композитор: Maurice Jarre
Год выпуска диска: 2012
Год выпуска фильма: 1985
Производитель диска: WMG, USA
Издатель (лейбл): Varèse Sarabande CD Club
Номер по каталогу: VCL 1012 1140
Аудиокодек: FLAC (*.flac)
Тип рипа: tracks+.cue
Битрейт аудио: lossless
Продолжительность: 01:17:23
Источник: собственный рип
Наличие сканов в содержимом раздачи: да, 600dpi
Ссылки: Кинопоиск | IMDB | Wikipedia | SoundtrackCollector
MP3: [url=...4269762](Score) Враг мой / Enemy Mine [The Deluxe Edition] (Maurice Jarre) - 2012 (1985), MP3, 320 kbps[/url]
Доп. инфо: Limited edition of 1500 copies
The Original Album:
01. Fyrine IV [0:05:03.35]
02. The Relationship [0:03:55.57]
03. The Small Drac [0:02:45.06]
04. The Crater [0:02:14.17]
05. The Birth Of Zammis [0:06:15.29]
06. Spring [0:01:27.27]
07. The Scavengers [0:04:48.14]
08. Davidge's Lineage [0:03:32.35]
09. Football Game [0:00:44.28]
10. Before The Holy Drac Council [0:10:01.05]

Unreleased Music and Alternates:
11. Main Title (Film Version) [0:02:21.07]
12. Joey's Death (Alternate) [0:03:23.48]
13. Drac In Pool [0:02:18.68]
14. Electric Davidge [0:00:29.00]
15. Hope Of Rescue [0:00:34.65]
16. Knife At Throat [0:01:24.09]
17. Walk In The Forest [0:00:35.71]
18. First Talman [0:00:30.71]
19. Davidge In The Pit [0:02:20.01]
20. Cuca Shells (Alternate) [0:01:13.49]
21. Teaching Of Talman [0:02:53.12]
22. Talman Sung [0:00:48.40]
23. Drac Skull (Alternate Take) [0:01:32.21]
24. A Little Drac [0:01:55.36]
25. Predator In Hut [0:01:46.17]
26. Drac Sings Lineage [0:01:18.33]
27. Take My Place [0:02:12.60]
28. Birth Of The Baby [0:02:54.05]
29. I Wish I Had Your Face [0:01:59.54]
30. Davidge At BTA [0:01:23.13]
31. Peace [0:01:07.45]
32. The Holy Council [0:01:33.40]
Exact Audio Copy V1.0 beta 3 from 29. August 2011

EAC extraction logfile from 19. November 2014, 19:18

Maurice Jarre / Enemy Mine (Deluxe Edition)

Used drive : PLEXTOR CD-R PX-230A Adapter: 1 ID: 0

Read mode : SecureUtilize accurate stream : YesDefeat audio cache : YesMake use of C2 pointers : No

Read offset correction : 738Overread into Lead-In and Lead-Out : NoFill up missing offset samples with silence : YesDelete leading and trailing silent blocks : NoNull samples used in CRC calculations : YesUsed interface : Native Win32 interface for Win NT & 2000Gap handling : Appended to previous track

Used output format : User Defined EncoderSelected bitrate : 896 kBit/sQuality : HighAdd ID3 tag : NoCommand line compressor : C:\Program Files\Exact Audio Copy\FLAC\FLAC.EXEAdditional command line options : -6 -V -T "ARTIST=%artist%" -T "TITLE=%title%" -T "ALBUM=%albumtitle%" -T "DATE=%year%"-T "TRACKNUMBER=%tracknr%" -T "GENRE=%genre%" -T "COMMENT=%comment%" -T "ALBUMARTIST=%albuminterpret%" -T "COMPOSER=%composer%"-T "DISCNUMBER=%cdnumber%" -T "TOTALDISCS=%totalcds%" -T "TOTALTRACKS=%numtracks%" %source% -o %dest%

TOC of the extracted CD

Track | Start | Length | Start sector | End sector --------------------------------------------------------- 1 | 0:00.00 | 5:03.35 | 0 | 22759 2 | 5:03.35 | 3:55.57 | 22760 | 40441 3 | 8:59.17 | 2:45.06 | 40442 | 52822 4 | 11:44.23 | 2:14.17 | 52823 | 62889 5 | 13:58.40 | 6:15.29 | 62890 | 91043 6 | 20:13.69 | 1:27.27 | 91044 | 97595 7 | 21:41.21 | 4:48.14 | 97596 | 119209 8 | 26:29.35 | 3:32.35 | 119210 | 135144 9 | 30:01.70 | 0:44.28 | 135145 | 138472 10 | 30:46.23 | 10:01.05 | 138473 | 183552 11 | 40:47.28 | 2:21.07 | 183553 | 194134 12 | 43:08.35 | 3:23.48 | 194135 | 209407 13 | 46:32.08 | 2:18.68 | 209408 | 219825 14 | 48:51.01 | 0:29.00 | 219826 | 222000 15 | 49:20.01 | 0:34.65 | 222001 | 224615 16 | 49:54.66 | 1:24.09 | 224616 | 230924 17 | 51:19.00 | 0:35.71 | 230925 | 233620 18 | 51:54.71 | 0:30.71 | 233621 | 235941 19 | 52:25.67 | 2:20.01 | 235942 | 246442 20 | 54:45.68 | 1:13.49 | 246443 | 251966 21 | 55:59.42 | 2:53.12 | 251967 | 264953 22 | 58:52.54 | 0:48.40 | 264954 | 268593 23 | 59:41.19 | 1:32.21 | 268594 | 275514 24 | 61:13.40 | 1:55.36 | 275515 | 284175 25 | 63:09.01 | 1:46.17 | 284176 | 292142 26 | 64:55.18 | 1:18.33 | 292143 | 298025 27 | 66:13.51 | 2:12.60 | 298026 | 307985 28 | 68:26.36 | 2:54.05 | 307986 | 321040 29 | 71:20.41 | 1:59.54 | 321041 | 330019 30 | 73:20.20 | 1:23.13 | 330020 | 336257 31 | 74:43.33 | 1:07.45 | 336258 | 341327 32 | 75:51.03 | 1:33.40 | 341328 | 348342

Track 1

Filename C:\Music\01 - Maurice Jarre - Fyrine IV.wav

Pre-gap length 0:00:02.00

Peak level 88.3 % Extraction speed 5.2 X Track quality 99.9 % Test CRC 629EDB75 Copy CRC 629EDB75 Accurately ripped (confidence 10) [AE216B93] (AR v2) Copy OK

Track 2

Filename C:\Music\02 - Maurice Jarre - The Relationship.wav

Peak level 95.5 % Extraction speed 4.7 X Track quality 100.0 % Test CRC DEA12659 Copy CRC DEA12659 Accurately ripped (confidence 10) [827149DE] (AR v2) Copy OK

Track 3

Filename C:\Music\03 - Maurice Jarre - The Small Drac.wav

Peak level 75.0 % Extraction speed 4.3 X Track quality 100.0 % Test CRC 36214A40 Copy CRC 36214A40 Accurately ripped (confidence 10) [0D099BD3] (AR v2) Copy OK

Track 4

Filename C:\Music\04 - Maurice Jarre - The Crater.wav

Peak level 98.1 % Extraction speed 4.9 X Track quality 100.0 % Test CRC A7665153 Copy CRC A7665153 Accurately ripped (confidence 10) [A99A9524] (AR v2) Copy OK

Track 5

Filename C:\Music\05 - Maurice Jarre - The Birth Of Zammis.wav

Peak level 92.0 % Extraction speed 4.3 X Track quality 100.0 % Test CRC C7EE09CD Copy CRC C7EE09CD Accurately ripped (confidence 10) [5ACF170F] (AR v2) Copy OK

Track 6

Filename C:\Music\06 - Maurice Jarre - Spring.wav

Peak level 97.1 % Extraction speed 3.5 X Track quality 100.0 % Test CRC B649DF11 Copy CRC B649DF11 Accurately ripped (confidence 10) [C5A62BDF] (AR v2) Copy OK

Track 7

Filename C:\Music\07 - Maurice Jarre - The Scavengers.wav

Peak level 98.8 % Extraction speed 5.2 X Track quality 99.9 % Test CRC 02A664DC Copy CRC 02A664DC Accurately ripped (confidence 10) [65B86235] (AR v2) Copy OK

Track 8

Filename C:\Music\08 - Maurice Jarre - Davidge's Lineage.wav

Peak level 58.0 % Extraction speed 4.6 X Track quality 99.9 % Test CRC 875A4488 Copy CRC 875A4488 Accurately ripped (confidence 10) [F91C11D1] (AR v2) Copy OK

Track 9

Filename C:\Music\09 - Maurice Jarre - Football Game.wav

Peak level 95.7 % Extraction speed 2.6 X Track quality 100.0 % Test CRC C92A4485 Copy CRC C92A4485 Accurately ripped (confidence 10) [F9090A1D] (AR v2) Copy OK

Track 10

Filename C:\Music\10 - Maurice Jarre - Before The Holy Drac Council.wav

Peak level 98.8 % Extraction speed 5.4 X Track quality 100.0 % Test CRC 581CDFF6 Copy CRC 581CDFF6 Accurately ripped (confidence 10) [8DBB3FBB] (AR v2) Copy OK

Track 11

Filename C:\Music\11 - Maurice Jarre - Main Title (Film Version).wav

Pre-gap length 0:00:05.48

Peak level 98.8 % Extraction speed 3.7 X Track quality 99.9 % Test CRC D6FCDF0B Copy CRC D6FCDF0B Accurately ripped (confidence 10) [6D622033] (AR v2) Copy OK

Track 12

Filename C:\Music\12 - Maurice Jarre - Joey's Death (Alternate).wav

Peak level 90.8 % Extraction speed 4.1 X Track quality 100.0 % Test CRC A8D05781 Copy CRC A8D05781 Accurately ripped (confidence 10) [B379B51C] (AR v2) Copy OK

Track 13

Filename C:\Music\13 - Maurice Jarre - Drac In Pool.wav

Peak level 98.8 % Extraction speed 3.3 X Track quality 100.0 % Test CRC E3520697 Copy CRC E3520697 Accurately ripped (confidence 10) [81A7A5A5] (AR v2) Copy OK

Track 14

Filename C:\Music\14 - Maurice Jarre - Electric Davidge.wav

Peak level 92.1 % Extraction speed 2.6 X Track quality 100.0 % Test CRC 34D299DB Copy CRC 34D299DB Accurately ripped (confidence 10) [8E06786A] (AR v2) Copy OK

Track 15

Filename C:\Music\15 - Maurice Jarre - Hope Of Rescue.wav

Pre-gap length 0:00:01.09

Peak level 83.5 % Extraction speed 2.0 X Track quality 99.6 % Test CRC 4D7A357E Copy CRC 4D7A357E Accurately ripped (confidence 10) [1788FCC7] (AR v2) Copy OK

Track 16

Filename C:\Music\16 - Maurice Jarre - Knife At Throat.wav

Peak level 70.0 % Extraction speed 3.2 X Track quality 100.0 % Test CRC 7EC855BF Copy CRC 7EC855BF Accurately ripped (confidence 10) [66914B38] (AR v2) Copy OK

Track 17

Filename C:\Music\17 - Maurice Jarre - Walk In The Forest.wav

Peak level 61.4 % Extraction speed 2.3 X Track quality 100.0 % Test CRC F61636DA Copy CRC F61636DA Accurately ripped (confidence 10) [E3A476CA] (AR v2) Copy OK

Track 18

Filename C:\Music\18 - Maurice Jarre - First Talman.wav

Peak level 33.6 % Extraction speed 2.7 X Track quality 100.0 % Test CRC 1D434622 Copy CRC 1D434622 Accurately ripped (confidence 10) [69653508] (AR v2) Copy OK

Track 19

Filename C:\Music\19 - Maurice Jarre - Davidge In The Pit.wav

Peak level 90.4 % Extraction speed 3.6 X Track quality 100.0 % Test CRC 6B1E2583 Copy CRC 6B1E2583 Accurately ripped (confidence 10) [29758C79] (AR v2) Copy OK

Track 20

Filename C:\Music\20 - Maurice Jarre - Cuca Shells (Alternate).wav

Peak level 72.2 % Extraction speed 3.4 X Track quality 99.8 % Test CRC 6256D1DE Copy CRC 6256D1DE Accurately ripped (confidence 10) [5D2D582B] (AR v2) Copy OK

Track 21

Filename C:\Music\21 - Maurice Jarre - Teaching Of Talman.wav

Peak level 65.1 % Extraction speed 5.5 X Track quality 100.0 % Test CRC 1E557853 Copy CRC 1E557853 Accurately ripped (confidence 10) [9C7AB2E5] (AR v2) Copy OK

Track 22

Filename C:\Music\22 - Maurice Jarre - Talman Sung.wav

Peak level 61.6 % Extraction speed 4.5 X Track quality 100.0 % Test CRC FB4A2A95 Copy CRC FB4A2A95 Accurately ripped (confidence 10) [AD762791] (AR v2) Copy OK

Track 23

Filename C:\Music\23 - Maurice Jarre - Drac Skull (Alternate Take).wav

Peak level 98.8 % Extraction speed 3.0 X Track quality 99.8 % Test CRC 7C55F93B Copy CRC 7C55F93B Accurately ripped (confidence 10) [9CF820E8] (AR v2) Copy OK

Track 24

Filename C:\Music\24 - Maurice Jarre - A Little Drac.wav

Pre-gap length 0:00:01.13

Peak level 49.2 % Extraction speed 3.9 X Track quality 100.0 % Test CRC A709EB08 Copy CRC A709EB08 Accurately ripped (confidence 10) [1473A739] (AR v2) Copy OK

Track 25

Filename C:\Music\25 - Maurice Jarre - Predator In Hut.wav

Peak level 90.4 % Extraction speed 2.9 X Track quality 99.8 % Test CRC 5D07EF1E Copy CRC 5D07EF1E Accurately ripped (confidence 10) [57855286] (AR v2) Copy OK

Track 26

Filename C:\Music\26 - Maurice Jarre - Drac Sings Lineage.wav

Pre-gap length 0:00:01.29

Peak level 49.3 % Extraction speed 3.5 X Track quality 100.0 % Test CRC 34249CEA Copy CRC 34249CEA Accurately ripped (confidence 10) [3442B7D5] (AR v2) Copy OK

Track 27

Filename C:\Music\27 - Maurice Jarre - Take My Place.wav

Pre-gap length 0:00:02.03

Peak level 47.3 % Extraction speed 3.2 X Track quality 99.9 % Test CRC 94A73CEB Copy CRC 94A73CEB Accurately ripped (confidence 10) [4A94BBF9] (AR v2) Copy OK

Track 28

Filename C:\Music\28 - Maurice Jarre - Birth Of The Baby.wav

Peak level 80.7 % Extraction speed 4.7 X Track quality 100.0 % Test CRC 48EC5F66 Copy CRC 48EC5F66 Accurately ripped (confidence 10) [40F227A6] (AR v2) Copy OK

Track 29

Filename C:\Music\29 - Maurice Jarre - I Wish I Had Your Face.wav

Peak level 51.4 % Extraction speed 3.7 X Track quality 100.0 % Test CRC BEAE9B79 Copy CRC BEAE9B79 Accurately ripped (confidence 10) [0A089D31] (AR v2) Copy OK

Track 30

Filename C:\Music\30 - Maurice Jarre - Davidge At BTA.wav

Peak level 86.4 % Extraction speed 3.4 X Track quality 100.0 % Test CRC 77C2A691 Copy CRC 77C2A691 Accurately ripped (confidence 10) [A6BB22AC] (AR v2) Copy OK

Track 31

Filename C:\Music\31 - Maurice Jarre - Peace.wav

Pre-gap length 0:00:01.12

Peak level 53.2 % Extraction speed 3.1 X Track quality 100.0 % Test CRC 0AA90C15 Copy CRC 0AA90C15 Accurately ripped (confidence 10) [082F63E4] (AR v2) Copy OK

Track 32

Filename C:\Music\32 - Maurice Jarre - The Holy Council.wav

Peak level 76.3 % Extraction speed 2.2 X Track quality 100.0 % Test CRC 09917F39 Copy CRC 09917F39 Accurately ripped (confidence 10) [AE49C19C] (AR v2) Copy OK

All tracks accurately ripped

No errors occurred

End of status report

==== Log checksum 760121751CB587DC8BE7B6FF1371C8166E0DFF6C52F89E98768B87FF8E61242B ====
REM GENRE SoundtrackREM DATE 2012REM DISCID F8122420REM COMMENT "ExactAudioCopy v1.0b3"PERFORMER "Maurice Jarre"TITLE "Enemy Mine (Deluxe Edition)"FILE "01 - Maurice Jarre - Fyrine IV.wav" WAVE TRACK 01 AUDIO TITLE "Fyrine IV" PERFORMER "Maurice Jarre" INDEX 01 00:00:00FILE "02 - Maurice Jarre - The Relationship.wav" WAVE TRACK 02 AUDIO TITLE "The Relationship" PERFORMER "Maurice Jarre" INDEX 01 00:00:00FILE "03 - Maurice Jarre - The Small Drac.wav" WAVE TRACK 03 AUDIO TITLE "The Small Drac" PERFORMER "Maurice Jarre" INDEX 01 00:00:00FILE "04 - Maurice Jarre - The Crater.wav" WAVE TRACK 04 AUDIO TITLE "The Crater" PERFORMER "Maurice Jarre" INDEX 01 00:00:00FILE "05 - Maurice Jarre - The Birth Of Zammis.wav" WAVE TRACK 05 AUDIO TITLE "The Birth Of Zammis" PERFORMER "Maurice Jarre" INDEX 01 00:00:00FILE "06 - Maurice Jarre - Spring.wav" WAVE TRACK 06 AUDIO TITLE "Spring" PERFORMER "Maurice Jarre" INDEX 01 00:00:00FILE "07 - Maurice Jarre - The Scavengers.wav" WAVE TRACK 07 AUDIO TITLE "The Scavengers" PERFORMER "Maurice Jarre" INDEX 01 00:00:00FILE "08 - Maurice Jarre - Davidge's Lineage.wav" WAVE TRACK 08 AUDIO TITLE "Davidge's Lineage" PERFORMER "Maurice Jarre" INDEX 01 00:00:00FILE "09 - Maurice Jarre - Football Game.wav" WAVE TRACK 09 AUDIO TITLE "Football Game" PERFORMER "Maurice Jarre" INDEX 01 00:00:00FILE "10 - Maurice Jarre - Before The Holy Drac Council.wav" WAVE TRACK 10 AUDIO TITLE "Before The Holy Drac Council" PERFORMER "Maurice Jarre" INDEX 01 00:00:00 TRACK 11 AUDIO TITLE "Main Title (Film Version)" PERFORMER "Maurice Jarre" INDEX 00 09:55:32FILE "11 - Maurice Jarre - Main Title (Film Version).wav" WAVE INDEX 01 00:00:00FILE "12 - Maurice Jarre - Joey's Death (Alternate).wav" WAVE TRACK 12 AUDIO TITLE "Joey's Death (Alternate)" PERFORMER "Maurice Jarre" INDEX 01 00:00:00FILE "13 - Maurice Jarre - Drac In Pool.wav" WAVE TRACK 13 AUDIO TITLE "Drac In Pool" PERFORMER "Maurice Jarre" INDEX 01 00:00:00FILE "14 - Maurice Jarre - Electric Davidge.wav" WAVE TRACK 14 AUDIO TITLE "Electric Davidge" PERFORMER "Maurice Jarre" INDEX 01 00:00:00 TRACK 15 AUDIO TITLE "Hope Of Rescue" PERFORMER "Maurice Jarre" INDEX 00 00:27:66FILE "15 - Maurice Jarre - Hope Of Rescue.wav" WAVE INDEX 01 00:00:00FILE "16 - Maurice Jarre - Knife At Throat.wav" WAVE TRACK 16 AUDIO TITLE "Knife At Throat" PERFORMER "Maurice Jarre" INDEX 01 00:00:00FILE "17 - Maurice Jarre - Walk In The Forest.wav" WAVE TRACK 17 AUDIO TITLE "Walk In The Forest" PERFORMER "Maurice Jarre" INDEX 01 00:00:00FILE "18 - Maurice Jarre - First Talman.wav" WAVE TRACK 18 AUDIO TITLE "First Talman" PERFORMER "Maurice Jarre" INDEX 01 00:00:00FILE "19 - Maurice Jarre - Davidge In The Pit.wav" WAVE TRACK 19 AUDIO TITLE "Davidge In The Pit" PERFORMER "Maurice Jarre" INDEX 01 00:00:00FILE "20 - Maurice Jarre - Cuca Shells (Alternate).wav" WAVE TRACK 20 AUDIO TITLE "Cuca Shells (Alternate)" PERFORMER "Maurice Jarre" INDEX 01 00:00:00FILE "21 - Maurice Jarre - Teaching Of Talman.wav" WAVE TRACK 21 AUDIO TITLE "Teaching Of Talman" PERFORMER "Maurice Jarre" INDEX 01 00:00:00FILE "22 - Maurice Jarre - Talman Sung.wav" WAVE TRACK 22 AUDIO TITLE "Talman Sung" PERFORMER "Maurice Jarre" INDEX 01 00:00:00FILE "23 - Maurice Jarre - Drac Skull (Alternate Take).wav" WAVE TRACK 23 AUDIO TITLE "Drac Skull (Alternate Take)" PERFORMER "Maurice Jarre" INDEX 01 00:00:00 TRACK 24 AUDIO TITLE "A Little Drac" PERFORMER "Maurice Jarre" INDEX 00 01:31:08FILE "24 - Maurice Jarre - A Little Drac.wav" WAVE INDEX 01 00:00:00FILE "25 - Maurice Jarre - Predator In Hut.wav" WAVE TRACK 25 AUDIO TITLE "Predator In Hut" PERFORMER "Maurice Jarre" INDEX 01 00:00:00 TRACK 26 AUDIO TITLE "Drac Sings Lineage" PERFORMER "Maurice Jarre" INDEX 00 01:44:63FILE "26 - Maurice Jarre - Drac Sings Lineage.wav" WAVE INDEX 01 00:00:00 TRACK 27 AUDIO TITLE "Take My Place" PERFORMER "Maurice Jarre" INDEX 00 01:16:30FILE "27 - Maurice Jarre - Take My Place.wav" WAVE INDEX 01 00:00:00FILE "28 - Maurice Jarre - Birth Of The Baby.wav" WAVE TRACK 28 AUDIO TITLE "Birth Of The Baby" PERFORMER "Maurice Jarre" INDEX 01 00:00:00FILE "29 - Maurice Jarre - I Wish I Had Your Face.wav" WAVE TRACK 29 AUDIO TITLE "I Wish I Had Your Face" PERFORMER "Maurice Jarre" INDEX 01 00:00:00FILE "30 - Maurice Jarre - Davidge At BTA.wav" WAVE TRACK 30 AUDIO TITLE "Davidge At BTA" PERFORMER "Maurice Jarre" INDEX 01 00:00:00 TRACK 31 AUDIO TITLE "Peace" PERFORMER "Maurice Jarre" INDEX 00 01:22:01FILE "31 - Maurice Jarre - Peace.wav" WAVE INDEX 01 00:00:00FILE "32 - Maurice Jarre - The Holy Council.wav" WAVE TRACK 32 AUDIO TITLE "The Holy Council" PERFORMER "Maurice Jarre" INDEX 01 00:00:00


Трекер:  [ 10-Янв-2015 23:30 ]

  

Скачать .torrent

Размер .torrent файла 38 KB


Размер: 448 MB
Хэш (hash) релиза: 1ba2476963ed8e991deee6ad7db6958108d5ac33

Торренты, похожие на Враг мой Enemy Mine скачать торрент

Форум Название Автор Размер S L Добавлен
Саундтреки ·· (Score) Враг мой / Enemy Mine [The Deluxe Edition] (Maurice Jarre) - 2012 (1985), MP3, 320 kbps Galfimbul 191391980183 MB 0 0 1356815040

00:04

30-Дек-12

Еще никто не оставлял запись к записи скачать торрент Враг мой Enemy Mine . Будь первым!

!Обратная связь