Скачать через торрент Девчата на колёсах Rolling Girls, the бесплатно Аниме Все серии на русском torrent

Если у вас наблюдаются проблемы со скриншотами, переходом по ссылками, скачиванием торрентов - проблемы в блокировщике рекламы AdBlock. #хорошегоДня!


Статистика раздачи
Размер:  446 MB   |    Зарегистрирован:  2 года 11 месяцев   |    .torrent скачан:  33 раза   |   
Раздают:  1  
   
Загрузка...
 
Автор Сообщение

Galfimbul

avatar Galfimbul


Девчата на колёсах / Rolling Girls, the

Страна: Япония
Год выпуска: 2015 г.
Жанр: Приключения
Тип: TV
Продолжительность: 25 мин
Режиссер: Дэай Котоми
Студия:

Описание: После Великой Токийской войны прошло десять лет. Японские префектуры стали независимыми государствами, каждым из которых правит проповедник «моса», поддерживаемый армией «мобов» в борьбе с другими государствами-кланами.
Проповедник саитамского клана приказывает четырём мобам — Нодзоми, Юкине, Аи и Тиае — отправиться в мотопробег по Японии, чтобы договариваться о битвах с каждым встреченным кланом.
Тут-то и начинаются повседневные приключения девушек, влюблённых в мотоциклы. Они падают, но поднимаются, чтобы снова идти вперёд, несмотря на то, что судьбой им уготовлено остаться «мобами». Или нет?

Качество: HDTVRip
Тип релиза: Без хардсаба
Формат видео: MP4
Наличие линковки: Нет
Релиз/Автор рипа: Leopard-Raws
Видео: AVC, 1280x720, 2348 кб/с, 23,976 fps
Аудио: AAC, 192 кб/с VBR, 48000 Гц, 2 ch Язык Японский ; Озвучка: Оригинал
Субтитры: Внешние Язык субтитров русский ; Перевод: Ani_Panic и Харитон Харько
>>>>>>>> Перевод: Vii, Редактура: Veles, Оформление и контроль: Харитон Харько
GeneralComplete name : H:\Rolling Girls\[Leopard-Raws] The Rolling Girls - 01 RAW (MBS 1280x720 x264 AAC).mp4Format : MPEG-4Format profile : Base MediaCodec ID : isomFile size : 446 MiBDuration : 24mn 29sOverall bit rate mode : VariableOverall bit rate : 2 544 KbpsEncoded date : UTC 2015-01-11 07:41:58Tagged date : UTC 2015-01-11 07:41:58

VideoID : 1Format : AVCFormat/Info : Advanced Video CodecFormat profile : High@L4.1Format settings, CABAC : YesFormat settings, ReFrames : 4 framesCodec ID : avc1Codec ID/Info : Advanced Video CodingDuration : 24mn 29sBit rate : 2 348 KbpsMaximum bit rate : 18.3 MbpsWidth : 1 280 pixelsHeight : 720 pixelsDisplay aspect ratio : 16:9Frame rate mode : ConstantFrame rate : 23.976 fpsColor space : YUVChroma subsampling : 4:2:0Bit depth : 8 bitsScan type : ProgressiveBits/(Pixel*Frame) : 0.106Stream size : 411 MiB (92%)Title : 264:fps=23.976@GPAC0.5.1-DEV-rev4929Writing library : x264 core 129 r2245+729M 1a52e03Encoding settings : cabac=1 / ref=4 / deblock=1:1:-1 / analyse=0x3:0x113 / me=umh / subme=9 / psy=1 / fade_compensate=0.00 / psy_rd=1.00:0.00 / mixed_ref=1 / me_range=24 / chroma_me=1 / trellis=2 / 8x8dct=1 / cqm=0 / deadzone=21,11 / fast_pskip=1 / chroma_qp_offset=-2 / threads=8 / lookahead_threads=1 / sliced_threads=0 / nr=0 / decimate=1 / interlaced=0 / bluray_compat=0 / constrained_intra=0 / fgo=0 / bframes=9 / b_pyramid=2 / b_adapt=2 / b_bias=0 / direct=1 / weightb=1 / open_gop=0 / weightp=2 / keyint=240 / keyint_min=24 / scenecut=40 / intra_refresh=0 / rc=crf / mbtree=0 / crf=18.5 / qcomp=0.72 / qpmin=0 / qpmax=69 / qpstep=4 / ip_ratio=1.40 / pb_ratio=1.30 / aq=1:0.85Encoded date : UTC 2015-01-11 07:41:58Tagged date : UTC 2015-01-11 07:42:03Color primaries : BT.709Transfer characteristics : BT.709Matrix coefficients : BT.709

AudioID : 2Format : AACFormat/Info : Advanced Audio CodecFormat profile : LCCodec ID : 40Duration : 24mn 29sBit rate mode : VariableBit rate : 192 KbpsMaximum bit rate : 251 KbpsChannel(s) : 2 channelsChannel positions : Front: L RSampling rate : 48.0 KHzCompression mode : LossyStream size : 33.6 MiB (8%)Language : JapaneseEncoded date : UTC 2015-01-10 20:51:24Tagged date : UTC 2015-01-11 07:42:03
01. Бравый новобранец.


Трекер:  [ 11-Янв-2015 11:30 ]

  

Скачать .torrent

Размер .torrent файла 18 KB


Размер: 446 MB
Хэш (hash) релиза: 9b6ce4d71ca779394e7836fd9f68d51a9b2b7b7c
Подписка на обновления:

Еще никто не оставлял запись к записи скачать торрент Девчата на колёсах Rolling Girls, the . Будь первым!

!Обратная связь