Скачать через торрент музыку Ночь в музее: Секрет гробницы Night At The Museum: Secret Of The Tomb бесплатно без регистрации torrent

Если у вас наблюдаются проблемы со скриншотами, переходом по ссылками, скачиванием торрентов - проблемы в блокировщике рекламы AdBlock. #хорошегоДня!


Статистика раздачи
Размер:  312 MB   |    Зарегистрирован:  2 года 10 месяцев   |    .torrent скачан:  47 раз   |   
Раздают:  1  
   
Загрузка...
 
Автор Сообщение

Galfimbul

avatar Galfimbul


Ночь в музее: Секрет гробницы / Night At The Museum: Secret Of The Tomb
Жанр: Score
Композитор: Alan Silvestri
Год выпуска диска: 2014
Производитель диска: P&O, Germany
Издатель (лейбл): Varèse Sarabande
Номер по каталогу: VSD-7320
Аудиокодек: FLAC (*.flac)
Тип рипа: tracks+.cue
Битрейт аудио: lossless
Продолжительность: 00:57:16
Источник: собственный рип
Наличие сканов в содержимом раздачи: да, 600dpi
Ссылки: Кинопоиск | IMDB | Wikipedia | SoundtrackCollector
MP3: [url=...4911036](Score) Ночь в музее: Секрет гробницы / Night At The Museum: Secret Of The Tomb (Alan Silvestri) - 2014, MP3, 320 kbps[/url]
01. The Ahkmnerah Expedition [0:03:35.60]
02. Performance Prep [0:02:03.27]
03. LOL [0:02:23.53]
04. The Grand Re-Opening [0:03:14.58]
05. "The End Will Come" [0:02:20.45]
06. Sneak And Greet [0:03:26.33]
07. Sir Lancelot [0:03:34.68]
08. Where Are Jed And Octavius? [0:02:51.31]
09. Main Hall [0:03:25.28]
10. Xiangliu [0:03:47.35]
11. Male Bonding [0:02:16.26]
12. The Legend Of The Tablet [0:03:11.10]
13. The Escher Fight [0:03:46.33]
14. Camelot [0:03:50.30]
15. The Quest [0:02:36.46]
16. "Seeing Your Boy Become A Man" [0:03:15.32]
17. Laaa Love [0:01:54.09]
18. A Farewell Kiss [0:02:41.63]
19. Teddy's Goodbye [0:03:01.49]
Exact Audio Copy V1.0 beta 3 from 29. August 2011

EAC extraction logfile from 19. January 2015, 18:47

Alan Silvestri / Night at the Museum: Battle of the Smithsonian

Used drive : PLEXTOR CD-R PX-230A Adapter: 1 ID: 0

Read mode : SecureUtilize accurate stream : YesDefeat audio cache : YesMake use of C2 pointers : No

Read offset correction : 738Overread into Lead-In and Lead-Out : NoFill up missing offset samples with silence : YesDelete leading and trailing silent blocks : NoNull samples used in CRC calculations : YesUsed interface : Native Win32 interface for Win NT & 2000Gap handling : Appended to previous track

Used output format : User Defined EncoderSelected bitrate : 896 kBit/sQuality : HighAdd ID3 tag : NoCommand line compressor : C:\Program Files\Exact Audio Copy\FLAC\FLAC.EXEAdditional command line options : -6 -V -T "ARTIST=%artist%" -T "TITLE=%title%" -T "ALBUM=%albumtitle%" -T "DATE=%year%"-T "TRACKNUMBER=%tracknr%" -T "GENRE=%genre%" -T "COMMENT=%comment%" -T "ALBUMARTIST=%albuminterpret%" -T "COMPOSER=%composer%"-T "DISCNUMBER=%cdnumber%" -T "TOTALDISCS=%totalcds%" -T "TOTALTRACKS=%numtracks%" %source% -o %dest%

TOC of the extracted CD

Track | Start | Length | Start sector | End sector --------------------------------------------------------- 1 | 0:00.00 | 3:35.60 | 0 | 16184 2 | 3:35.60 | 2:03.27 | 16185 | 25436 3 | 5:39.12 | 2:23.53 | 25437 | 36214 4 | 8:02.65 | 3:14.58 | 36215 | 50822 5 | 11:17.48 | 2:20.45 | 50823 | 61367 6 | 13:38.18 | 3:26.33 | 61368 | 76850 7 | 17:04.51 | 3:34.68 | 76851 | 92968 8 | 20:39.44 | 2:51.31 | 92969 | 105824 9 | 23:31.00 | 3:25.28 | 105825 | 121227 10 | 26:56.28 | 3:47.35 | 121228 | 138287 11 | 30:43.63 | 2:16.26 | 138288 | 148513 12 | 33:00.14 | 3:11.10 | 148514 | 162848 13 | 36:11.24 | 3:46.33 | 162849 | 179831 14 | 39:57.57 | 3:50.30 | 179832 | 197111 15 | 43:48.12 | 2:36.46 | 197112 | 208857 16 | 46:24.58 | 3:15.32 | 208858 | 223514 17 | 49:40.15 | 1:54.09 | 223515 | 232073 18 | 51:34.24 | 2:41.63 | 232074 | 244211 19 | 54:16.12 | 3:01.49 | 244212 | 257835

Track 1

Filename C:\Music\01 - Alan Silvestri - The Ahkmnerah Expedition.wav

Pre-gap length 0:00:02.00

Peak level 94.3 % Extraction speed 4.6 X Track quality 99.9 % Test CRC 4395D03A Copy CRC 4395D03A Track not present in AccurateRip database Copy OK

Track 2

Filename C:\Music\02 - Alan Silvestri - Performance Prep.wav

Pre-gap length 0:00:01.38

Peak level 94.3 % Extraction speed 5.2 X Track quality 100.0 % Test CRC 4AB6EFE5 Copy CRC 4AB6EFE5 Track not present in AccurateRip database Copy OK

Track 3

Filename C:\Music\03 - Alan Silvestri - LOL.wav

Pre-gap length 0:00:01.38

Peak level 94.4 % Extraction speed 5.6 X Track quality 100.0 % Test CRC E37EF799 Copy CRC E37EF799 Track not present in AccurateRip database Copy OK

Track 4

Filename C:\Music\04 - Alan Silvestri - The Grand Re-Opening.wav

Pre-gap length 0:00:01.38

Peak level 94.7 % Extraction speed 6.0 X Track quality 100.0 % Test CRC 98610871 Copy CRC 98610871 Track not present in AccurateRip database Copy OK

Track 5

Filename C:\Music\05 - Alan Silvestri - ''The End Will Come''.wav

Pre-gap length 0:00:01.39

Peak level 94.3 % Extraction speed 6.1 X Track quality 100.0 % Test CRC C30D1815 Copy CRC C30D1815 Track not present in AccurateRip database Copy OK

Track 6

Filename C:\Music\06 - Alan Silvestri - Sneak And Greet.wav

Pre-gap length 0:00:01.38

Peak level 94.3 % Extraction speed 6.5 X Track quality 100.0 % Test CRC A6C34A5E Copy CRC A6C34A5E Track not present in AccurateRip database Copy OK

Track 7

Filename C:\Music\07 - Alan Silvestri - Sir Lancelot.wav

Pre-gap length 0:00:01.38

Peak level 94.4 % Extraction speed 7.1 X Track quality 100.0 % Test CRC D2DF24C9 Copy CRC D2DF24C9 Track not present in AccurateRip database Copy OK

Track 8

Filename C:\Music\08 - Alan Silvestri - Where Are Jed And Octavius.wav

Pre-gap length 0:00:01.38

Peak level 94.6 % Extraction speed 7.2 X Track quality 100.0 % Test CRC A3F37A1E Copy CRC A3F37A1E Track not present in AccurateRip database Copy OK

Track 9

Filename C:\Music\09 - Alan Silvestri - Main Hall.wav

Pre-gap length 0:00:01.38

Peak level 94.3 % Extraction speed 7.4 X Track quality 100.0 % Test CRC B7A6E128 Copy CRC B7A6E128 Track not present in AccurateRip database Copy OK

Track 10

Filename C:\Music\10 - Alan Silvestri - Xiangliu.wav

Pre-gap length 0:00:01.00

Peak level 95.4 % Extraction speed 7.7 X Track quality 100.0 % Test CRC 2CF494F8 Copy CRC 2CF494F8 Track not present in AccurateRip database Copy OK

Track 11

Filename C:\Music\11 - Alan Silvestri - Male Bonding.wav

Pre-gap length 0:00:01.00

Peak level 96.5 % Extraction speed 7.1 X Track quality 100.0 % Test CRC 6CF3E093 Copy CRC 6CF3E093 Track not present in AccurateRip database Copy OK

Track 12

Filename C:\Music\12 - Alan Silvestri - The Legend Of The Tablet.wav

Pre-gap length 0:00:01.38

Peak level 96.7 % Extraction speed 7.3 X Track quality 100.0 % Test CRC 07E6DDD3 Copy CRC 07E6DDD3 Track not present in AccurateRip database Copy OK

Track 13

Filename C:\Music\13 - Alan Silvestri - The Escher Fight.wav

Pre-gap length 0:00:00.38

Peak level 96.4 % Extraction speed 8.1 X Track quality 100.0 % Test CRC F94EA451 Copy CRC F94EA451 Track not present in AccurateRip database Copy OK

Track 14

Filename C:\Music\14 - Alan Silvestri - Camelot.wav

Pre-gap length 0:00:01.38

Peak level 94.4 % Extraction speed 7.5 X Track quality 99.9 % Test CRC FA474924 Copy CRC FA474924 Track not present in AccurateRip database Copy OK

Track 15

Filename C:\Music\15 - Alan Silvestri - The Quest.wav

Pre-gap length 0:00:01.00

Peak level 94.3 % Extraction speed 8.2 X Track quality 100.0 % Test CRC AB721A9F Copy CRC AB721A9F Track not present in AccurateRip database Copy OK

Track 16

Filename C:\Music\16 - Alan Silvestri - ''Seeing Your Boy Become A Man''.wav

Pre-gap length 0:00:01.38

Peak level 65.0 % Extraction speed 8.7 X Track quality 100.0 % Test CRC B0304B9D Copy CRC B0304B9D Track not present in AccurateRip database Copy OK

Track 17

Filename C:\Music\17 - Alan Silvestri - Laaa Love.wav

Pre-gap length 0:00:01.38

Peak level 91.3 % Extraction speed 8.4 X Track quality 100.0 % Test CRC 87458682 Copy CRC 87458682 Track not present in AccurateRip database Copy OK

Track 18

Filename C:\Music\18 - Alan Silvestri - A Farewell Kiss.wav

Pre-gap length 0:00:01.37

Peak level 73.7 % Extraction speed 8.9 X Track quality 100.0 % Test CRC C9A5E28B Copy CRC C9A5E28B Track not present in AccurateRip database Copy OK

Track 19

Filename C:\Music\19 - Alan Silvestri - Teddy's Goodbye.wav

Pre-gap length 0:00:01.40

Peak level 94.3 % Extraction speed 8.8 X Track quality 100.0 % Test CRC 0A9342CE Copy CRC 0A9342CE Track not present in AccurateRip database Copy OK

None of the tracks are present in the AccurateRip database

No errors occurred

End of status report

==== Log checksum 3A21D6A05BBF7FAB0C2AB0B2036305A49B74B81EFB8CE31132E246427F45BC17 ====
REM GENRE SoundtrackREM DATE 2014REM DISCID 140D6D13REM COMMENT "ExactAudioCopy v1.0b3"PERFORMER "Alan Silvestri"TITLE "Night at the Museum: Battle of the Smithsonian"FILE "01 - Alan Silvestri - The Ahkmnerah Expedition.wav" WAVE TRACK 01 AUDIO TITLE "The Ahkmnerah Expedition" PERFORMER "Alan Silvestri" INDEX 01 00:00:00 TRACK 02 AUDIO TITLE "Performance Prep" PERFORMER "Alan Silvestri" INDEX 00 03:34:22FILE "02 - Alan Silvestri - Performance Prep.wav" WAVE INDEX 01 00:00:00 TRACK 03 AUDIO TITLE "LOL" PERFORMER "Alan Silvestri" INDEX 00 02:01:64FILE "03 - Alan Silvestri - LOL.wav" WAVE INDEX 01 00:00:00 TRACK 04 AUDIO TITLE "The Grand Re-Opening" PERFORMER "Alan Silvestri" INDEX 00 02:22:15FILE "04 - Alan Silvestri - The Grand Re-Opening.wav" WAVE INDEX 01 00:00:00 TRACK 05 AUDIO TITLE "'The End Will Come'" PERFORMER "Alan Silvestri" INDEX 00 03:13:19FILE "05 - Alan Silvestri - ''The End Will Come''.wav" WAVE INDEX 01 00:00:00 TRACK 06 AUDIO TITLE "Sneak And Greet" PERFORMER "Alan Silvestri" INDEX 00 02:19:07FILE "06 - Alan Silvestri - Sneak And Greet.wav" WAVE INDEX 01 00:00:00 TRACK 07 AUDIO TITLE "Sir Lancelot" PERFORMER "Alan Silvestri" INDEX 00 03:24:70FILE "07 - Alan Silvestri - Sir Lancelot.wav" WAVE INDEX 01 00:00:00 TRACK 08 AUDIO TITLE "Where Are Jed And Octavius?" PERFORMER "Alan Silvestri" INDEX 00 03:33:30FILE "08 - Alan Silvestri - Where Are Jed And Octavius.wav" WAVE INDEX 01 00:00:00 TRACK 09 AUDIO TITLE "Main Hall" PERFORMER "Alan Silvestri" INDEX 00 02:49:68FILE "09 - Alan Silvestri - Main Hall.wav" WAVE INDEX 01 00:00:00 TRACK 10 AUDIO TITLE "Xiangliu" PERFORMER "Alan Silvestri" INDEX 00 03:24:28FILE "10 - Alan Silvestri - Xiangliu.wav" WAVE INDEX 01 00:00:00 TRACK 11 AUDIO TITLE "Male Bonding" PERFORMER "Alan Silvestri" INDEX 00 03:46:35FILE "11 - Alan Silvestri - Male Bonding.wav" WAVE INDEX 01 00:00:00 TRACK 12 AUDIO TITLE "The Legend Of The Tablet" PERFORMER "Alan Silvestri" INDEX 00 02:14:63FILE "12 - Alan Silvestri - The Legend Of The Tablet.wav" WAVE INDEX 01 00:00:00 TRACK 13 AUDIO TITLE "The Escher Fight" PERFORMER "Alan Silvestri" INDEX 00 03:10:47FILE "13 - Alan Silvestri - The Escher Fight.wav" WAVE INDEX 01 00:00:00 TRACK 14 AUDIO TITLE "Camelot" PERFORMER "Alan Silvestri" INDEX 00 03:44:70FILE "14 - Alan Silvestri - Camelot.wav" WAVE INDEX 01 00:00:00 TRACK 15 AUDIO TITLE "The Quest" PERFORMER "Alan Silvestri" INDEX 00 03:49:30FILE "15 - Alan Silvestri - The Quest.wav" WAVE INDEX 01 00:00:00 TRACK 16 AUDIO TITLE "'Seeing Your Boy Become A Man'" PERFORMER "Alan Silvestri" INDEX 00 02:35:08FILE "16 - Alan Silvestri - ''Seeing Your Boy Become A Man''.wav" WAVE INDEX 01 00:00:00 TRACK 17 AUDIO TITLE "Laaa Love" PERFORMER "Alan Silvestri" INDEX 00 03:13:69FILE "17 - Alan Silvestri - Laaa Love.wav" WAVE INDEX 01 00:00:00 TRACK 18 AUDIO TITLE "A Farewell Kiss" PERFORMER "Alan Silvestri" INDEX 00 01:52:47FILE "18 - Alan Silvestri - A Farewell Kiss.wav" WAVE INDEX 01 00:00:00 TRACK 19 AUDIO TITLE "Teddy's Goodbye" PERFORMER "Alan Silvestri" INDEX 00 02:40:23FILE "19 - Alan Silvestri - Teddy's Goodbye.wav" WAVE INDEX 01 00:00:00


Трекер:  [ 19-Янв-2015 21:30 ]

  

Скачать .torrent

Размер .torrent файла 8 KB


Размер: 312 MB
Хэш (hash) релиза: 882f6d61658d0cf9b9cb566eafb58646ca18f38a

Торренты, похожие на Ночь в музее: Секрет гробницы Night At The Museum: Secret Of The Tomb скачать торрент

Форум Название Автор Размер S L Добавлен
Саундтреки к фильмам и мультфильмам (mp3) ·· (Score) Ночь в музее: Секрет гробницы / Night At The Museum: Secret Of The Tomb (Alan Silvestri) - 2014, MP3, 320 kbps Galfimbul 139207088133 MB 0 0 1420809701

16:21

9-Янв-15

Еще никто не оставлял запись к записи скачать торрент Ночь в музее: Секрет гробницы Night At The Museum: Secret Of The Tomb . Будь первым!

!Обратная связь