Скачать через торрент музыку 24bit бесплатно без регистрации torrent

Если у вас наблюдаются проблемы со скриншотами, переходом по ссылками, скачиванием торрентов - проблемы в блокировщике рекламы AdBlock. #хорошегоДня!


Статистика раздачи
Размер:  792 MB   |    Зарегистрирован:  2 года 10 месяцев   |    .torrent скачан:  47 раз   |   
Раздают:  1  
   
Загрузка...
 
Автор Сообщение

Galfimbul

avatar Galfimbul


Исчезнувшая / Gone Girl

Жанр: Score
Композитор: Trent Reznor & Atticus Ross
Год выпуска диска: 2014
Страна-производитель диска: US
Аудиокодек: FLAC (*.flac)
Тип рипа: tracks
Битрейт аудио: lossless
Продолжительность: 01:26:55
Источник: ffshrine
Наличие сканов в содержимом раздачи: нет
Треклист:
01. What Have We Done to Each Other? (02:30)
02. Sugar Storm (02:53)
03. Empty Places (02:46)
04. With Suspicion (03:16)
05. Just Like You (04:11)
06. Appearances (02:52)
07. Clue One (01:30)
08. Clue Two (05:10)
09. Background Noise (03:09)
10. Procedural (04:30)
11. Something Disposable (04:28)
12. Like Home (03:39)
13. Empty Places (Reprise) (02:20)
14. The Way He Looks at Me (03:27)
15. Technically, Missing (06:43)
16. Secrets (03:08)
17. Perpetual (04:00)
18. Strange Activities (02:37)
19. Still Gone (02:47)
20. A Reflection (01:46)
21. Consummation (04:09)
22. Sugar Storm (Reprise) (00:41)
23. What Will We Do? (03:05)
24. At Risk (11:05)
foobar2000 1.3.3 (cdpos.biz) / Dynamic Range Meter 1.1.1log date: 2015-02-03 23:39:23

--------------------------------------------------------------------------------Analyzed: Trent Reznor & Atticus Ross / Gone Girl: Soundtrack from the Motion Picture--------------------------------------------------------------------------------

DR Peak RMS Duration Track--------------------------------------------------------------------------------DR9 -0.89 dB -15.48 dB 2:30 1-What Have We Done to Each Other?DR9 -1.72 dB -12.98 dB 2:54 2-Sugar StormDR9 -0.22 dB -13.45 dB 2:46 3-Empty PlacesDR7 -0.06 dB -12.85 dB 3:17 4-With SuspicionDR7 -0.06 dB -11.61 dB 4:12 5-Just Like YouDR11 -0.06 dB -13.04 dB 2:52 6-AppearancesDR8 -0.06 dB -11.82 dB 1:31 7-Clue OneDR7 -1.02 dB -12.16 dB 5:10 8-Clue TwoDR13 -0.06 dB -17.36 dB 3:10 9-Background NoiseDR10 -0.06 dB -11.72 dB 4:30 10-ProceduralDR9 -0.06 dB -12.14 dB 4:29 11-Something DisposableDR8 -0.06 dB -11.37 dB 3:40 12-Like HomeDR10 -0.06 dB -13.63 dB 2:20 13-Empty Places (Reprise)DR10 -0.06 dB -12.87 dB 3:28 14-The Way He Looks At MeDR8 -0.06 dB -12.41 dB 6:44 15-Technically, MissingDR7 -0.06 dB -10.71 dB 3:09 16-SecretsDR7 -0.06 dB -9.98 dB 4:01 17-PerpetualDR8 -0.06 dB -12.45 dB 2:37 18-Strange ActivitiesDR12 -0.06 dB -14.07 dB 2:48 19-Still GoneDR11 -0.06 dB -15.33 dB 1:46 20-A ReflectionDR6 -0.06 dB -9.53 dB 4:10 21-ConsummationDR10 -0.23 dB -15.43 dB 0:42 22-Sugar Storm (Reprise)DR7 -0.06 dB -12.31 dB 3:05 23-What Will We Do?DR6 -0.06 dB -11.90 dB 11:08 24-At Risk--------------------------------------------------------------------------------

Number of tracks: 24Official DR value: DR9

Samplerate: 48000 HzChannels: 2Bits per sample: 24Bitrate: 798 kbpsCodec: FLAC================================================================================


Трекер:  [ 03-Фев-2015 20:30 ]

  

Скачать .torrent

Размер .torrent файла 17 KB


Размер: 792 MB
Хэш (hash) релиза: 5a42108062fa77c9c383a5c9429df929af34249d

Торренты, похожие на 24bit скачать торрент

Форум Название Автор Размер S L Добавлен
Электронная музыка (lossless) ·· (Psychill, Psydub, Psyglitch) [WEB] Symbolico - Connectika (2017) 24Bits, FLAC (tracks), lossless Galfimbul 722662229689 MB 0 0 1491327755

20:42

4-Апр-17

Электронная музыка (lossless) ·· (Psychill, Psybient, Psytrance, Chillgressive) [WEB] Hinkstep - A Generation Lost In Space (2016) 24Bits, FLAC (tracks), lossless Galfimbul 825655703787 MB 0 0 1487059742

11:09

14-Фев-17

Электронная музыка (lossless) ·· (Dubstep, Glitch hop, Gypsy, Electronic) [WEB] Kalya Scintilla - Listen to the Trees [24Bits] - 2016, FLAC (tracks), lossless Galfimbul 308672238294 MB 0 0 1467925243

00:00

8-Июл-16

Электронная музыка (lossless) ·· (Ambient, Psybient, Psychill, Downtempo) [EP] forgotten future - realignment (24Bits) (2016), FLAC (tracks), lossless Galfimbul 507862159484 MB 0 0 1466759481

12:11

24-Июн-16

Саундтреки к аниме (lossless) ·· (OST) Ковбой Бибоп / Cowboy Bebop (Cowboy Bebop) - 1998 г., FLAC 24bit/96kHz (tracks), lossless Galfimbul 18660237081.74 GB 0 0 1462896480

19:08

10-Май-16

Саундтреки к играм (lossless) ·· (Score) Street Fighter V Original Soundtrack (VA) {WEB} - 2016 [FLAC (tracks) 24bit lossless] Galfimbul 20104438161.87 GB 0 0 1457724764

22:32

11-Мар-16

Электронная музыка (lossless) ·· (Leftfield, Electronic) UNKLE - live @ 6 февраля 2016 - Россия, Москва, Известия Hall - 2016, FLAC (tracks), 24bit lossless Galfimbul 11924717401.11 GB 0 0 1455150706

03:31

11-Фев-16

Электронная музыка (lossless) ·· (Electronic, Ambient, Drone, Minimal) [WEB] Celer - Akagi - 2016, 24bit FLAC (tracks), lossless Galfimbul 590140994563 MB 0 0 1450002107

13:21

13-Дек-15

Электронная музыка (lossless) ·· (Drum and Bass) [WEB] Stakka & Skynet. - Underfire Remixes Remastered - 2014, FLAC [24bit] (tracks), lossless Galfimbul 16820843311.57 GB 2 0 1448227849

00:30

23-Ноя-15

Электронная музыка (lossless) ·· (Dubstep, Grime, UK Garage) [WEB] Wiley & Zomby - Step 2001 - 2015 [Big Dada / BDDNL270], FLAC (tracks), 24bit Lossless Galfimbul 8349970280 MB 0 0 1447164244

17:04

10-Ноя-15

Электронная музыка (lossless) ·· (Dark Ambient) [WEB] Apocryphos & Kammarheit & Atrium Carceri - Onyx - 2015, 24bit FLAC (tracks), lossless Galfimbul 588391954561 MB 0 0 1441919986

00:19

11-Сен-15

Электронная музыка (lossless) ·· (House, Euro House) [LP] KR's Project - Right Here Right Now [SP 1794606] - 1997, FLAC [24bit / 96kHz] (tracks), lossless Galfimbul 400034795382 MB 0 0 1440483884

09:24

25-Авг-15

Электронная музыка (lossless) ·· (Dark Ambient) [WEB] Willy Stamati - The Woman You Are [2015], FLAC/24bit (tracks), lossless Galfimbul 537773450513 MB 0 0 1438037688

01:54

28-Июл-15

Электронная музыка (lossless) ·· (Psy Ambient) [WEB] Carbon Based Lifeforms - Hydroponic Garden (2003), FLAC/24bit (tracks), lossless Galfimbul 885759133845 MB 0 0 1435371128

05:12

27-Июн-15

Электронная музыка (lossless) ·· (Ambient) [WEB] Carbon Based Lifeforms - Twentythree (2011), FLAC/24bit (tracks), lossless Galfimbul 669511793638 MB 0 0 1435357122

01:18

27-Июн-15

Электронная музыка (lossless) ·· (Experimental, Abstract, Drone, Noise) [WEB] Machinefabriek - MIR [2015], FLAC/24bit (tracks), lossless Galfimbul 677690995646 MB 0 0 1435181134

00:25

25-Июн-15

Саундтреки к фильмам и мультфильмам (lossless) ·· (Score) Мстители: Эра Альтрона / Avengers: Age of Ultron (by Brian Tyler & Danny Elfman) [WEB][24bit] - 2015, FLAC (tracks), lossless Galfimbul 873104627833 MB 0 0 1434475300

20:21

16-Июн-15

Электронная музыка (lossless) ·· (Ambient / Drone / Experimental) [WEB] Airto - Antennas And Above (2015) [24bit. FLAC (tracks), lossless] Galfimbul 369507357352 MB 0 0 1434462479

16:47

16-Июн-15

Электронная музыка (lossless) ·· (Experimental, Abstract, Drone, Noise) [WEB] Banabila & Machinefabriek - Error Log [2015], FLAC/24bit (tracks), lossless Galfimbul 389595364372 MB 0 0 1431627680

21:21

14-Май-15

Электронная музыка (lossless) ·· (Modern Classical / Electronic / Contemporary Class) [WEB] Nils Frahm - The Bells - 2009, FLAC (tracks), 24bit lossless Galfimbul 346972010331 MB 0 0 1427820480

19:48

31-Мар-15

Еще никто не оставлял запись к записи скачать торрент 24bit . Будь первым!

!Обратная связь