Скачать через торрент музыку Сладкоежка Candy бесплатно без регистрации torrent

Если у вас наблюдаются проблемы со скриншотами, переходом по ссылками, скачиванием торрентов - проблемы в блокировщике рекламы AdBlock. #хорошегоДня!


Статистика раздачи
Размер:  233 MB   |    Зарегистрирован:  2 года 10 месяцев   |    .torrent скачан:  37 раз   |   
Раздают:  1  
   
Загрузка...
 
Автор Сообщение

Galfimbul

avatar Galfimbul


Сладкоежка / Candy


Жанр: Score || Композитор: Dave Grusin || Год выпуска диска: 2012 || Год выпуска фильма: 1968 || Страна-производитель диска: США || Аудио кодек: FLAC (*.flac) || Тип рипа: tracks+.cue || Битрейт аудио: lossless || Продолжительность: 00:37:06 || Источник: What.cd (zulimo) || Наличие сканов в содержимом раздачи: нет
Треклист:
01. Child Of The Universe (by The Byrds) [03:11]
02. Birth By Descent [03:19]
03. Opening Night: By Surgery [02:12]
04. Spec-Rac-Tac-Para-Comm [02:38]
05. Border Town Blues: A Blunt Instrument [02:47]
06. Magic Carpet Ride (by Steppenwolf) [04:28]
07. Constant Journey [02:13]
08. Every Mother's Daughter [02:05]
09. It's Always Because Of This: A Deformity [02:30]
10. Marlon & His Sacred Bird [03:01]
11. Ascension To Virginity [05:02]
12. Rock Me (by Steppenwolf) [03:41]
Exact Audio Copy V1.0 beta 3 from 29. August 2011

EAC extraction logfile from 14. November 2014, 13:45

Various / Candy (The Original Motion Picture Soundtrack)

Used drive : PIONEER DVD-RW DVR-118L Adapter: 1 ID: 0

Read mode : SecureUtilize accurate stream : YesDefeat audio cache : YesMake use of C2 pointers : No

Read offset correction : 6Overread into Lead-In and Lead-Out : NoFill up missing offset samples with silence : YesDelete leading and trailing silent blocks : NoNull samples used in CRC calculations : YesUsed interface : Native Win32 interface for Win NT & 2000Gap handling : Appended to previous track

Used output format : User Defined EncoderSelected bitrate : 128 kBit/sQuality : HighAdd ID3 tag : NoCommand line compressor : C:\Program Files\Exact Audio Copy\Flac\flac.exeAdditional command line options : -8 -V -T "ARTIST=%artist%" -T "TITLE=%title%" -T "ALBUM=%albumtitle%" -T "DATE=%year%" -T "TRACKNUMBER=%tracknr%" -T "GENRE=%genre%" -T "PERFORMER=%albuminterpret%" -T "COMPOSER=%composer%" %haslyrics%--tag-from-file=LYRICS="%lyricsfile%"%haslyrics% -T "ALBUMARTIST=%albumartist%" -T "DISCNUMBER=%cdnumber%" -T "TOTALDISCS=%totalcds%" -T "TOTALTRACKS=%numtracks%" -T "COMMENT=%comment%" %source% -o %dest%

TOC of the extracted CD

Track | Start | Length | Start sector | End sector --------------------------------------------------------- 1 | 0:00.00 | 3:10.63 | 0 | 14312 2 | 3:10.63 | 3:18.74 | 14313 | 29236 3 | 6:29.62 | 2:12.11 | 29237 | 39147 4 | 8:41.73 | 2:37.41 | 39148 | 50963 5 | 11:19.39 | 2:47.23 | 50964 | 63511 6 | 14:06.62 | 4:27.50 | 63512 | 83586 7 | 18:34.37 | 2:13.31 | 83587 | 93592 8 | 20:47.68 | 2:04.50 | 93593 | 102942 9 | 22:52.43 | 2:30.05 | 102943 | 114197 10 | 25:22.48 | 3:01.27 | 114198 | 127799 11 | 28:24.00 | 5:01.46 | 127800 | 150420 12 | 33:25.46 | 3:40.65 | 150421 | 166985

Track 1

Filename C:\EAC\01 - The Byrds - Child Of The Universe.wav

Pre-gap length 0:00:02.00

Peak level 98.5 % Extraction speed 1.0 X Track quality 100.0 % Test CRC 911DDDE7 Copy CRC 911DDDE7 Accurately ripped (confidence 1) [0E11300A] (AR v2) Copy OK

Track 2

Filename C:\EAC\02 - Dave Grusin - Birth By Descent.wav

Peak level 98.4 % Extraction speed 1.1 X Track quality 100.0 % Test CRC C9F5E6FD Copy CRC C9F5E6FD Accurately ripped (confidence 1) [16AE9F2B] (AR v2) Copy OK

Track 3

Filename C:\EAC\03 - Dave Grusin - Opening Night- By Surgery.wav

Peak level 98.3 % Extraction speed 0.9 X Track quality 99.9 % Test CRC 2635CE35 Copy CRC 2635CE35 Accurately ripped (confidence 1) [0C87FD4A] (AR v2) Copy OK

Track 4

Filename C:\EAC\04 - Dave Grusin - Spec-Rac-Tac-Para-Comm.wav

Peak level 98.3 % Extraction speed 1.2 X Track quality 100.0 % Test CRC 8FBAF081 Copy CRC 8FBAF081 Accurately ripped (confidence 1) [A37D04E3] (AR v2) Copy OK

Track 5

Filename C:\EAC\05 - Dave Grusin - Border Town Blues- A Blunt Instrument.wav

Peak level 98.3 % Extraction speed 1.1 X Track quality 99.9 % Test CRC CB7B3F3B Copy CRC CB7B3F3B Accurately ripped (confidence 1) [8178E655] (AR v2) Copy OK

Track 6

Filename C:\EAC\06 - Steppenwolf - Magic Carpet Ride.wav

Peak level 98.4 % Extraction speed 1.5 X Track quality 100.0 % Test CRC F80B8424 Copy CRC F80B8424 Accurately ripped (confidence 1) [214942E8] (AR v2) Copy OK

Track 7

Filename C:\EAC\07 - Dave Grusin - Constant Journey.wav

Peak level 98.4 % Extraction speed 1.1 X Track quality 99.9 % Test CRC 70CD7650 Copy CRC 70CD7650 Accurately ripped (confidence 1) [D857AE76] (AR v2) Copy OK

Track 8

Filename C:\EAC\08 - Dave Grusin - Every Mother's Daughter.wav

Peak level 98.3 % Extraction speed 1.4 X Track quality 100.0 % Test CRC EFDFFBEE Copy CRC EFDFFBEE Accurately ripped (confidence 1) [0D7AA8F8] (AR v2) Copy OK

Track 9

Filename C:\EAC\09 - Dave Grusin - It's Always Because Of This- A Deformity.wav

Peak level 98.4 % Extraction speed 1.2 X Track quality 99.9 % Test CRC 36A1777B Copy CRC 36A1777B Accurately ripped (confidence 1) [F3407456] (AR v2) Copy OK

Track 10

Filename C:\EAC\10 - Dave Grusin - Marlon & His Sacred Bird.wav

Peak level 98.3 % Extraction speed 1.6 X Track quality 100.0 % Test CRC 9529A233 Copy CRC 9529A233 Accurately ripped (confidence 1) [D8063743] (AR v2) Copy OK

Track 11

Filename C:\EAC\11 - Dave Grusin - Ascension To Virginity.wav

Peak level 98.4 % Extraction speed 1.8 X Track quality 100.0 % Test CRC 36AB8339 Copy CRC 36AB8339 Accurately ripped (confidence 1) [7227754D] (AR v2) Copy OK

Track 12

Filename C:\EAC\12 - Steppenwolf - Rock Me.wav

Peak level 98.4 % Extraction speed 1.8 X Track quality 100.0 % Test CRC 890B5074 Copy CRC 890B5074 Accurately ripped (confidence 1) [7B7BCB76] (AR v2) Copy OK

All tracks accurately ripped

No errors occurred

End of status report

==== Log checksum 934DB032E06DAE2EE80FBC3541C02AB1F2274FE63CFA0D88000B8441C1C9DA62 ====
REM GENRE SoundtrackREM DATE 1968REM DISCID 9308B20CREM COMMENT "ExactAudioCopy v1.0b3"PERFORMER "Various"TITLE "Candy (The Original Motion Picture Soundtrack)"FILE "01 - The Byrds - Child Of The Universe.wav" WAVE TRACK 01 AUDIO TITLE "Child Of The Universe" PERFORMER "The Byrds" INDEX 01 00:00:00FILE "02 - Dave Grusin - Birth By Descent.wav" WAVE TRACK 02 AUDIO TITLE "Birth By Descent" PERFORMER "Dave Grusin" INDEX 01 00:00:00FILE "03 - Dave Grusin - Opening Night- By Surgery.wav" WAVE TRACK 03 AUDIO TITLE "Opening Night: By Surgery" PERFORMER "Dave Grusin" INDEX 01 00:00:00FILE "04 - Dave Grusin - Spec-Rac-Tac-Para-Comm.wav" WAVE TRACK 04 AUDIO TITLE "Spec-Rac-Tac-Para-Comm" PERFORMER "Dave Grusin" INDEX 01 00:00:00FILE "05 - Dave Grusin - Border Town Blues- A Blunt Instrument.wav" WAVE TRACK 05 AUDIO TITLE "Border Town Blues: A Blunt Instrument" PERFORMER "Dave Grusin" INDEX 01 00:00:00FILE "06 - Steppenwolf - Magic Carpet Ride.wav" WAVE TRACK 06 AUDIO TITLE "Magic Carpet Ride" PERFORMER "Steppenwolf" INDEX 01 00:00:00FILE "07 - Dave Grusin - Constant Journey.wav" WAVE TRACK 07 AUDIO TITLE "Constant Journey" PERFORMER "Dave Grusin" INDEX 01 00:00:00FILE "08 - Dave Grusin - Every Mother's Daughter.wav" WAVE TRACK 08 AUDIO TITLE "Every Mother's Daughter" PERFORMER "Dave Grusin" INDEX 01 00:00:00FILE "09 - Dave Grusin - It's Always Because Of This- A Deformity.wav" WAVE TRACK 09 AUDIO TITLE "It's Always Because Of This: A Deformity" PERFORMER "Dave Grusin" INDEX 01 00:00:00FILE "10 - Dave Grusin - Marlon & His Sacred Bird.wav" WAVE TRACK 10 AUDIO TITLE "Marlon & His Sacred Bird" PERFORMER "Dave Grusin" INDEX 01 00:00:00FILE "11 - Dave Grusin - Ascension To Virginity.wav" WAVE TRACK 11 AUDIO TITLE "Ascension To Virginity" PERFORMER "Dave Grusin" INDEX 01 00:00:00FILE "12 - Steppenwolf - Rock Me.wav" WAVE TRACK 12 AUDIO TITLE "Rock Me" PERFORMER "Steppenwolf" INDEX 01 00:00:00




Трекер:  [ 07-Фев-2015 18:00 ]

  

Скачать .torrent

Размер .torrent файла 20 KB


Размер: 233 MB
Хэш (hash) релиза: 864adf7a4e0a6cbd7b0d5810c0b497e25fbb03ca

Еще никто не оставлял запись к записи скачать торрент Сладкоежка Candy . Будь первым!

!Обратная связь