Скачать через торрент музыку Смертельная битва Mortal Kombat бесплатно без регистрации torrent

Если у вас наблюдаются проблемы со скриншотами, переходом по ссылками, скачиванием торрентов - проблемы в блокировщике рекламы AdBlock. #хорошегоДня!


Статистика раздачи
Размер:  990 MB   |    Зарегистрирован:  2 года 9 месяцев   |    .torrent скачан:  51 раз   |   
Раздают:  1  
   
Загрузка...
 
Автор Сообщение

Galfimbul

avatar Galfimbul


Смертельная битва / Mortal Kombat
[Uncensored Version]

Название альбома: Mortal Kombat (Original Motion Picture Soundtrack) | Жанр: Soundtrack | Композитор: Various
Год выпуска диска: 1995 | Страна-производитель диска: Europe | Издатель (лейбл): London Records, TVT Records
Номер по каталогу: 828697-2 (0 42282 86972 2) | Аудиокодек: FLAC (*.flac) | Тип рипа: image+.cue
Битрейт аудио: lossless | Продолжительность: 01:11:57 | Источник: nomercy036 | Наличие сканов: да

Треклист:
1 George S. Clinton – A Taste Of Things To Come 0:47
2 Gravity Kills – Goodbye (Demo) 3:10
3 KMFDM –Juke-Joint Jezebel (Giorgio Moroder Metropolis Mix) 5:17
4 Psykosonik – Unlearn (Josh Wink's Live Mix) 7:29
5 Traci Lords – Control (Juno Reactor Instrumental) 6:28
6 Orbital – Halcyon + On + On 9:27
7 Utah Saints – Utah Saints Take On The Theme From Mortal Kombat 3:00
8 G//Z/R – The Invisible 4:30
9 Fear Factory – Zero Signal 5:58
10 Sister Machine Gun – Burn 4:40
11 Type O Negative – Blood & Fire (Out Of The Ashes Mix) 4:35
12 Bile – I Reject 2:57
13 Napalm Death – Twist The Knife (Slowly) 2:53
14 Mutha's Day Out – What U See / We All Bleed Red 4:09
15 Immortals, The – Mortal Kombat (Techno-Syndrome 7" Mix) 3:22
16 George S. Clinton – Goro Vs. Art 3:00
17 George S. Clinton – Demon Warriors / Final Kombat 3:49
Exact Audio Copy V0.99 prebeta 5 from 4. May 2009

EAC extraction logfile from 24. December 2011, 12:32

Various / Mortal Kombat

Used drive : Optiarc DVD RW AD-7220S Adapter: 3 ID: 0

Read mode : SecureUtilize accurate stream : YesDefeat audio cache : YesMake use of C2 pointers : No

Read offset correction : 6Overread into Lead-In and Lead-Out : NoFill up missing offset samples with silence : YesDelete leading and trailing silent blocks : NoNull samples used in CRC calculations : NoUsed interface : Installed external ASPI interface

Used output format : Internal WAV RoutinesSample format : 44.100 Hz; 16 Bit; Stereo

TOC of the extracted CD

Track | Start | Length | Start sector | End sector --------------------------------------------------------- 1 | 0:00.00 | 0:48.55 | 0 | 3654 2 | 0:48.55 | 3:11.12 | 3655 | 17991 3 | 3:59.67 | 5:16.33 | 17992 | 41724 4 | 9:16.25 | 4:50.60 | 41725 | 63534 5 | 14:07.10 | 6:26.55 | 63535 | 92539 6 | 20:33.65 | 9:24.20 | 92540 | 134859 7 | 29:58.10 | 3:00.00 | 134860 | 148359 8 | 32:58.10 | 3:43.12 | 148360 | 165096 9 | 36:41.22 | 5:57.30 | 165097 | 191901 10 | 42:38.52 | 4:45.68 | 191902 | 213344 11 | 47:24.45 | 4:28.32 | 213345 | 233476 12 | 51:53.02 | 2:48.00 | 233477 | 246076 13 | 54:41.02 | 2:51.68 | 246077 | 258969 14 | 57:32.70 | 4:10.65 | 258970 | 277784 15 | 61:43.60 | 3:24.32 | 277785 | 293116 16 | 65:08.17 | 2:59.00 | 293117 | 306541 17 | 68:07.17 | 3:49.30 | 306542 | 323746

Range status and errors

Selected range

Filename tMH's.private.collection\ost95mortalkombat-tvtlnd.wav

Peak level 95.9 % Range quality 100.0 % Copy CRC 05FDEB80 Copy OK

No errors occurred

AccurateRip summary

Track 1 accurately ripped (confidence 3) [CC52ADFD]Track 2 accurately ripped (confidence 3) [665AE4A9]Track 3 accurately ripped (confidence 3) [9D069D39]Track 4 accurately ripped (confidence 3) [E16E1481]Track 5 accurately ripped (confidence 3) [7D86AD3F]Track 6 accurately ripped (confidence 3) [9E341F5D]Track 7 accurately ripped (confidence 3) [C8753797]Track 8 accurately ripped (confidence 3) [EDDB2311]Track 9 accurately ripped (confidence 3) [9356B0DE]Track 10 accurately ripped (confidence 3) [21F8E42A]Track 11 accurately ripped (confidence 3) [5F880002]Track 12 accurately ripped (confidence 3) [F87EFE80]Track 13 accurately ripped (confidence 3) [43B2F8D4]Track 14 accurately ripped (confidence 3) [A3475C30]Track 15 accurately ripped (confidence 3) [7376EB16]Track 16 accurately ripped (confidence 3) [40B22B0B]Track 17 accurately ripped (confidence 3) [DB0FE8D2]

All tracks accurately ripped

End of status report
[CUETools log; Date: 17.02.2015 7:31:18; Version: 2.1.4][AccurateRip ID: 002df876-024b8b56-de10dc11] found.Track [ CRC | V2 ] Status 01 [cc52adfd|04dcae8d] (03+00/91) Accurately ripped 02 [665ae4a9|58318f28] (03+00/92) Accurately ripped 03 [9d069d39|9c4d69eb] (03+00/90) Accurately ripped 04 [e16e1481|07fc1e24] (03+00/91) Accurately ripped 05 [7d86ad3f|dfed7e65] (03+00/90) Accurately ripped 06 [9e341f5d|9f540207] (03+00/91) Accurately ripped 07 [c8753797|cc99e26b] (03+00/90) Accurately ripped 08 [eddb2311|3bc7dc62] (03+00/89) Accurately ripped 09 [9356b0de|c5f5f6d5] (03+00/89) Accurately ripped 10 [21f8e42a|b4639045] (03+00/88) Accurately ripped 11 [5f880002|530e3cac] (03+00/88) Accurately ripped 12 [f87efe80|b16d57a8] (03+00/90) Accurately ripped 13 [43b2f8d4|aeb3d4ea] (03+00/91) Accurately ripped 14 [a3475c30|4aee7e24] (03+00/88) Accurately ripped 15 [7376eb16|ec551b75] (03+00/90) Accurately ripped 16 [40b22b0b|a7cb540a] (03+00/87) Accurately ripped 17 [db0fe8d2|496bd550] (03+00/82) Accurately rippedOffsetted by -967: 01 [efb7e496] (02/91) Accurately ripped 02 [90dcd9cf] (03/92) Accurately ripped 03 [fe36dd92] (03/90) Accurately ripped 04 [13e9d194] (03/91) Accurately ripped 05 [553e4dc9] (03/90) Accurately ripped 06 [1de7ea55] (03/91) Accurately ripped 07 [d82c0240] (03/90) Accurately ripped 08 [be96bfa9] (03/89) Accurately ripped 09 [8010d1f3] (03/89) Accurately ripped 10 [ec5e6dc1] (03/88) Accurately ripped 11 [fadd3486] (03/88) Accurately ripped 12 [2954e581] (04/90) Accurately ripped 13 [7bb5afea] (04/91) Accurately ripped 14 [7dacf5e1] (04/88) Accurately ripped 15 [b0a825d7] (04/90) Accurately ripped 16 [55fd5751] (04/87) Accurately ripped 17 [803fd5d4] (04/82) Accurately rippedOffsetted by -59: 01 [0a0bf000] (31/91) Accurately ripped 02 [73cd82d7] (31/92) Accurately ripped 03 [38008e9e] (31/90) Accurately ripped 04 [5876f418] (31/91) Accurately ripped 05 [07e87301] (30/90) Accurately ripped 06 [0a984ef5] (31/91) Accurately ripped 07 [5c58650c] (31/90) Accurately ripped 08 [b20dc3c9] (31/89) Accurately ripped 09 [1e79144f] (31/89) Accurately ripped 10 [4d5b75f5] (30/88) Accurately ripped 11 [0b06fa36] (30/88) Accurately ripped 12 [9932516d] (31/90) Accurately ripped 13 [a6afb232] (31/91) Accurately ripped 14 [0fa4ec0d] (30/88) Accurately ripped 15 [aa0706c3] (30/90) Accurately ripped 16 [5bacb1d9] (29/87) Accurately ripped 17 [8c7441ac] (29/82) Accurately rippedOffsetted by 18: 01 [515b4170] (02/91) Accurately ripped 02 [894d9eb5] (02/92) Accurately ripped 03 [2852398b] (02/90) Accurately ripped 04 [06e08687] (02/91) Accurately ripped 05 [d1236c93] (02/90) Accurately ripped 06 [44ba704d] (02/91) Accurately ripped 07 [67459a89] (02/90) Accurately ripped 08 [528a9b41] (02/89) Accurately ripped 09 [eb0f7428] (02/89) Accurately ripped 10 [6d25d1b8] (02/88) Accurately ripped 11 [fb7b4b8a] (02/88) Accurately ripped 12 [e435b122] (02/90) Accurately ripped 13 [96502cc0] (02/91) Accurately ripped 14 [f75ee232] (02/88) Accurately ripped 15 [c2469d38] (02/90) Accurately ripped 16 [e6064757] (02/87) Accurately ripped 17 [49d2ec16] (02/82) Accurately rippedOffsetted by 271: 01 [3ba9a6f1] (06/91) Accurately ripped 02 [f484d5b3] (06/92) Accurately ripped 03 [87156b28] (05/90) Accurately ripped 04 [b1a91e86] (06/91) Accurately ripped 05 [af777c05] (06/90) Accurately ripped 06 [4ce17025] (06/91) Accurately ripped 07 [669a25b6] (05/90) Accurately ripped 08 [3d495f39] (05/89) Accurately ripped 09 [66b465f1] (05/89) Accurately ripped 10 [328923cb] (06/88) Accurately ripped 11 [361e0d9e] (06/88) Accurately ripped 12 [a251c707] (05/90) Accurately ripped 13 [3bf1bf6e] (06/91) Accurately ripped 14 [15542f87] (05/88) Accurately ripped 15 [a43c1ddd] (06/90) Accurately ripped 16 [88080df5] (04/87) Accurately ripped 17 [25c0d2e0] (05/82) Accurately rippedOffsetted by 653: 01 [b4b7a08c] (13/91) Accurately ripped 02 [da324207] (13/92) Accurately ripped 03 [f6cbd266] (12/90) Accurately ripped 04 [3e25e7b0] (13/91) Accurately ripped 05 [ba599151] (13/90) Accurately ripped 06 [a9205eb5] (13/91) Accurately ripped 07 [ad6ecb54] (13/90) Accurately ripped 08 [24470089] (13/89) Accurately ripped 09 [570579f7] (13/89) Accurately ripped 10 [74a1f1ad] (13/88) Accurately ripped 11 [ce65c256] (13/88) Accurately ripped 12 [ed17b275] (13/90) Accurately ripped 13 [86f9f0e2] (13/91) Accurately ripped 14 [0df21295] (13/88) Accurately ripped 15 [65acc5cb] (13/90) Accurately ripped 16 [758f4a09] (13/87) Accurately ripped 17 [70cefbbc] (09/82) Accurately rippedOffsetted by 2384: 01 [83983865] (05/91) Accurately ripped 02 [7b0b2589] (05/92) Accurately ripped 03 [75086089] (05/90) Accurately ripped 04 [24a3bcf1] (05/91) Accurately ripped 05 [fc5436d9] (05/90) Accurately ripped 06 [88b8ee5b] (05/91) Accurately ripped 07 [2b614be7] (05/90) Accurately ripped 08 [2186a691] (04/89) Accurately ripped 09 [4aed80ee] (05/89) Accurately ripped 10 [533203da] (05/88) Accurately ripped 11 [639ff742] (05/88) Accurately ripped 12 [2d09a250] (05/90) Accurately ripped 13 [e5079cb4] (05/91) Accurately ripped 14 [24c83f00] (05/88) Accurately ripped 15 [ab5cdae6] (05/90) Accurately ripped 16 [3b5295eb] (05/87) Accurately ripped 17 [61bb6072] (04/82) Accurately ripped
Доп. информация: Рип by [url=...mode=viewprofile&u=37606]nomercy036[/url]




Смертельная битва / Mortal Kombat
[Censored Version]

Название альбома: Mortal Kombat (Original Motion Picture Soundtrack) | Жанр: Soundtrack | Композитор: Various
Год выпуска диска: 1995 | Страна-производитель диска: US | Издатель (лейбл): TVT Records
Номер по каталогу: TVT 6110 2 (0 16581 61102 3) | Аудиокодек: FLAC (*.flac) | Тип рипа: image+.cue
Битрейт аудио: lossless | Продолжительность: 01:11:56 | Источник: nomercy036 | Наличие сканов: да

Треклист:
1 George S. Clinton – A Taste Of Things To Come 0:47
2 Gravity Kills – Goodbye (Demo) 3:10
3 KMFDM – Juke-Joint Jezebel (Giorgio Moroder Metropolis Mix) 5:17
4 Psykosonik – Unlearn (Josh Wink's Live Mix) 7:29
5 Traci Lords – Control (Juno Reactor Instrumental) 6:28
6 Orbital – Halcyon + On + On 9:27
7 Utah Saints – Utah Saints Take On The Theme From Mortal Kombat 3:00
8 G//Z/R – The Invisible 4:30
9 Fear Factory – Zero Signal 5:58
10 Sister Machine Gun – Burn 4:40
11 Type O Negative – Blood & Fire (Out Of The Ashes Mix) 4:35
12 Bile – I Reject 2:57
13 Napalm Death – Twist The Knife (Slowly) 2:53
14 Mutha's Day Out – What U See/ We All Bleed Red 4:09
15 Immortals, The – Mortal Kombat (Techno Syndrome 7" Mix) 3:22
16 George S. Clinton – Goro Vs. Art 3:00
17 George S. Clinton – Demon Warriors/ Final Kombat 3:49
Exact Audio Copy V0.99 prebeta 5 from 4. May 2009

EAC extraction logfile from 14. April 2011, 9:02

Various / Mortal Kombat

Used drive : PLEXTOR CD-R PREMIUM Adapter: 7 ID: 0

Read mode : SecureUtilize accurate stream : YesDefeat audio cache : YesMake use of C2 pointers : No

Read offset correction : 30Overread into Lead-In and Lead-Out : NoFill up missing offset samples with silence : YesDelete leading and trailing silent blocks : NoNull samples used in CRC calculations : NoUsed interface : Installed external ASPI interface

Used output format : Internal WAV RoutinesSample format : 44.100 Hz; 16 Bit; Stereo

TOC of the extracted CD

Track | Start | Length | Start sector | End sector --------------------------------------------------------- 1 | 0:00.32 | 0:48.35 | 32 | 3666 2 | 0:48.67 | 3:10.33 | 3667 | 17949 3 | 3:59.25 | 5:16.35 | 17950 | 41684 4 | 9:15.60 | 4:50.60 | 41685 | 63494 5 | 14:06.45 | 6:26.47 | 63495 | 92491 6 | 20:33.17 | 9:24.28 | 92492 | 134819 7 | 29:57.45 | 3:00.00 | 134820 | 148319 8 | 32:57.45 | 3:43.25 | 148320 | 165069 9 | 36:40.70 | 5:57.15 | 165070 | 191859 10 | 42:38.10 | 4:45.60 | 191860 | 213294 11 | 47:23.70 | 4:28.37 | 213295 | 233431 12 | 51:52.32 | 2:48.05 | 233432 | 246036 13 | 54:40.37 | 2:51.63 | 246037 | 258924 14 | 57:32.25 | 4:10.67 | 258925 | 277741 15 | 61:43.17 | 3:24.38 | 277742 | 293079 16 | 65:07.55 | 2:59.00 | 293080 | 306504 17 | 68:06.55 | 3:49.35 | 306505 | 323714

Range status and errors

Selected range

Filename tMH's.private.collection\ost95mk.wav

Peak level 95.9 % Range quality 99.9 % Copy CRC FC950B50 Copy OK

No errors occurred

AccurateRip summary

Track 1 accurately ripped (confidence 36) [FB6C9AFE]Track 2 accurately ripped (confidence 34) [3D874D6A]Track 3 accurately ripped (confidence 35) [EB7D51B8]Track 4 accurately ripped (confidence 37) [5276341B]Track 5 accurately ripped (confidence 36) [324556FD]Track 6 accurately ripped (confidence 34) [3D899F19]Track 7 accurately ripped (confidence 35) [45EF6C51]Track 8 accurately ripped (confidence 35) [C12A8B2E]Track 9 accurately ripped (confidence 34) [604332A0]Track 10 accurately ripped (confidence 36) [9336F412]Track 11 accurately ripped (confidence 34) [E1F767D3]Track 12 accurately ripped (confidence 35) [D510AF3A]Track 13 accurately ripped (confidence 34) [115076A1]Track 14 accurately ripped (confidence 36) [799637FB]Track 15 accurately ripped (confidence 34) [315A5FD1]Track 16 accurately ripped (confidence 32) [7BC84D94]Track 17 accurately ripped (confidence 33) [08C51817]

All tracks accurately ripped

End of status report
[CUETools log; Date: 17.02.2015 7:59:15; Version: 2.1.4]Pregap length 00:00:32.[AccurateRip ID: 002df61a-024b714e-f810dc11] found.Track [ CRC | V2 ] Status 01 [fb6c9afe|622b55f5] (36+22/83) Accurately ripped 02 [3d874d6a|147b67f9] (34+22/81) Accurately ripped 03 [eb7d51b8|39cdd84a] (35+22/81) Accurately ripped 04 [5276341b|1037e647] (37+22/84) Accurately ripped 05 [324556fd|717186c1] (36+22/83) Accurately ripped 06 [3d899f19|8ddd4597] (34+22/81) Accurately ripped 07 [45ef6c51|423afa72] (35+21/82) Accurately ripped 08 [c12a8b2e|c879f479] (35+22/82) Accurately ripped 09 [604332a0|5cc6015c] (34+22/80) Accurately ripped 10 [9336f412|5665dec1] (36+22/80) Accurately ripped 11 [e1f767d3|da9eb3a5] (35+22/81) Accurately ripped 12 [d510af3a|019ae795] (35+22/81) Accurately ripped 13 [115076a1|2075c7f9] (34+21/79) Accurately ripped 14 [799637fb|6f88aeca] (36+22/82) Accurately ripped 15 [315a5fd1|1e632cc8] (34+22/82) Accurately ripped 16 [7bc84d94|d01d77ab] (32+22/77) Accurately ripped 17 [08c51817|157250e9] (34+19/76) Accurately rippedOffsetted by -99: 01 [62941558] (18/83) Accurately ripped 02 [84b77b2f] (18/81) Accurately ripped 03 [485be5b9] (17/81) Accurately ripped 04 [1cd6c8dd] (18/84) Accurately ripped 05 [ba1f5d05] (18/83) Accurately ripped 06 [adc12c8e] (18/81) Accurately ripped 07 [23ab673a] (19/82) Accurately ripped 08 [9bb2e562] (18/82) Accurately ripped 09 [9cb1c209] (17/80) Accurately ripped 10 [00d37f54] (15/80) Accurately ripped 11 [8dd8d88c] (17/81) Accurately ripped 12 [1a064baf] (17/81) Accurately ripped 13 [414c68f2] (17/79) Accurately ripped 14 [a1a2c0f0] (17/82) Accurately ripped 15 [8854bfbe] (19/82) Accurately ripped 16 [7d8d7cba] (17/77) Accurately ripped 17 [23dd0c57] (17/76) Accurately ripped
Доп. информация: Рип by [url=...mode=viewprofile&u=37606]nomercy036[/url]


Трекер:  [ 17-Фев-2015 08:30 ]

  

Скачать .torrent

Размер .torrent файла 21 KB


Размер: 990 MB
Хэш (hash) релиза: 44f3ea0d1a78421971fc1f0177e3aea0134174de

Торренты, похожие на Смертельная битва Mortal Kombat скачать торрент

Форум Название Автор Размер S L Добавлен
Саундтреки к фильмам и мультфильмам (mp3) ·· (Score) Смертельная битва / Mortal Kombat (George S. Clinton) - 1995, MP3, 320 kbps Galfimbul 106876503102 MB 0 0 1431454986

21:23

12-Май-15

Саундтреки к фильмам и мультфильмам (lossless) ·· (Score) Смертельная битва / Mortal Kombat (by George S. Clinton) - 1995, FLAC (image+.cue), lossless Galfimbul 200346048191 MB 0 0 1424139442

05:17

17-Фев-15

Саундтреки ·· (Soundtrack) Смертельная битва / Mortal Kombat (Original Motion Picture Soundtrack) [Non-censored & Censored Versions] - 1995, WavPack (image+.cue), lossless Galfimbul 1022752022975 MB 0 0 1356622860

18:41

27-Дек-12

Саундтреки к фильмам и мультфильмам (mp3) ·· (Soundtrack) Смертельная битва / Mortal Kombat (All Soundtracks + Bonus Tracks) - 1995-1999, MP3, 320 kbps AqvaGen 874867617834 MB 0 0 1292265074

21:31

13-Дек-10

Саундтреки к фильмам и мультфильмам (mp3) ·· (Score) Смертельная битва: Приключения начинаются / Mortal Kombat: The Journey Begins (Jonathan Sloate) - 1995, MP3 (tracks), VBR 192-320 kbps Galfimbul 6544588862 MB 0 0 1292266199

21:49

13-Дек-10

Саундтреки к фильмам и мультфильмам (mp3) ·· (Score) Смертельная битва 2: Истребление / Mortal Kombat: Annihilation (George S. Clinton) - 1997, MP3, 320 kbps Galfimbul 9073664087 MB 0 0 1292266043

21:47

13-Дек-10

Еще никто не оставлял запись к записи скачать торрент Смертельная битва Mortal Kombat . Будь первым!

!Обратная связь