Скачать через торрент музыку Лига справедливости: Новый барьер Justice League: The New Frontier бесплатно без регистрации torrent

Если у вас наблюдаются проблемы со скриншотами, переходом по ссылками, скачиванием торрентов - проблемы в блокировщике рекламы AdBlock. #хорошегоДня!


Статистика раздачи
Размер:  362 MB   |    Зарегистрирован:  2 года 9 месяцев   |    .torrent скачан:  34 раза   |   
Раздают:  1  
   
Загрузка...
 
Автор Сообщение

Galfimbul

avatar Galfimbul


Лига справедливости: Новый барьер / Justice League: The New Frontier
Жанр: Score
Композитор: Kevin Manthei
Год выпуска диска: 2008
Страна-производитель диска: USA

Издатель (лейбл): La-La Land Records
Номер по каталогу: LLLCD 1066
Аудиокодек: FLAC (*.flac)
Тип рипа: tracks+.cue

Битрейт аудио: lossless
Продолжительность: 00:57:24
Источник: CD / forums.ffshrine.org / KevinG
Наличие сканов в содержимом раздачи: да
01 - Main Titles
02 - The Centre / Hal Shot Down
03 - J'onn J'onzz Arrives
04 - Wonder Woman Recounts / J'onzz Watches TV
05 - The Flash Saves Las Vegas
06 - J'onn Becomes John / Church Brawl
07 - Carol and Hal Banter
08 - Driving to Ferris / The Real Ferris
09 - Hal's Mission Revealed / Batman Surprises J'onn / The Flash Fights Gorilla
10 - Crazy Scientist
11 - J'onzz Contemplates / J'onzz is Leaving
12 - To Space
13 - Mars Mission Mess
14 - New Green Lantern
15 - Superman Ties it Up / J'onzz Bonds
16 - Island Revealed / Superman Down
17 - Plan to Action
18 - Thick of Battle
19 - The Flash Vs Centre / Last Bit of Business
20 - Victory
21 - End Credits
X Lossless Decoder version 20120226 (139.1)

XLD extraction logfile from 2012-03-21 23:49:17 +0000

Kevin Manthei / Justice League: The New Frontier

Used drive : Memorex MRX-650LE v1 (revision 9M62)

Ripper mode : CDParanoia III 10.2Disable audio cache : OK for the drive with a cache less than 2750KiBMake use of C2 pointers : NORead offset correction : 6Max retry count : 100Gap status : Analyzed, Appended

TOC of the extracted CD Track | Start | Length | Start sector | End sector --------------------------------------------------------- 1 | 00:00:00 | 02:02:52 | 0 | 9201 2 | 02:02:52 | 02:51:69 | 9202 | 22095 3 | 04:54:46 | 00:52:01 | 22096 | 25996 4 | 05:46:47 | 02:12:16 | 25997 | 35912 5 | 07:58:63 | 03:33:46 | 35913 | 51933 6 | 11:32:34 | 03:13:48 | 51934 | 66456 7 | 14:46:07 | 00:23:34 | 66457 | 68215 8 | 15:09:41 | 01:35:49 | 68216 | 75389 9 | 16:45:15 | 02:53:63 | 75390 | 88427 10 | 19:39:03 | 01:38:58 | 88428 | 95835 11 | 21:17:61 | 01:19:20 | 95836 | 101780 12 | 22:37:06 | 01:28:46 | 101781 | 108426 13 | 24:05:52 | 04:14:52 | 108427 | 127528 14 | 28:20:29 | 03:57:11 | 127529 | 145314 15 | 32:17:40 | 02:42:69 | 145315 | 157533 16 | 35:00:34 | 05:23:14 | 157534 | 181772 17 | 40:23:48 | 02:36:62 | 181773 | 193534 18 | 43:00:35 | 04:33:71 | 193535 | 214080 19 | 47:34:31 | 03:38:30 | 214081 | 230460 20 | 51:12:61 | 03:10:24 | 230461 | 244734 21 | 54:23:10 | 03:01:26 | 244735 | 258335

AccurateRip Summary Track 01 : OK (confidence 4) Track 02 : OK (confidence 4) Track 03 : OK (confidence 4) Track 04 : OK (confidence 4) Track 05 : OK (confidence 4) Track 06 : OK (confidence 4) Track 07 : OK (confidence 4) Track 08 : OK (confidence 4) Track 09 : OK (confidence 4) Track 10 : OK (confidence 4) Track 11 : OK (confidence 4) Track 12 : OK (confidence 4) Track 13 : OK (confidence 4) Track 14 : OK (confidence 4) Track 15 : OK (confidence 4) Track 16 : OK (confidence 4) Track 17 : OK (confidence 4) Track 18 : OK (confidence 4) Track 19 : OK (confidence 4) Track 20 : OK (confidence 4) Track 21 : OK (confidence 4) ->All tracks accurately ripped.

All Tracks Statistics Read error : 0 Skipped (treated as error) : 0 Edge jitter error (maybe fixed) : 0 Atom jitter error (maybe fixed) : 0 Drift error (maybe fixed) : 0 Dropped bytes error (maybe fixed) : 0 Duplicated bytes error (maybe fixed) : 0

Track 01 Filename : /Users/kgpat/Desktop/Convert/JLNFflac/01 Kevin Manthei - Main Titles.flac Pre-gap length : 00:02:00

CRC32 hash : F4B39EF2 CRC32 hash (skip zero) : 0F08FFD4 AccurateRip signature : B9429728 ->Accurately ripped! (confidence 4) Statistics Read error : 0 Skipped (treated as error) : 0 Edge jitter error (maybe fixed) : 0 Atom jitter error (maybe fixed) : 0 Drift error (maybe fixed) : 0 Dropped bytes error (maybe fixed) : 0 Duplicated bytes error (maybe fixed) : 0

Track 02 Filename : /Users/kgpat/Desktop/Convert/JLNFflac/02 Kevin Manthei - The Centre/Hal Shot Down.flac Pre-gap length : 00:01:00

CRC32 hash : 8AB35342 CRC32 hash (skip zero) : 8CB82EC1 AccurateRip signature : 7D9A16FB ->Accurately ripped! (confidence 4) Statistics Read error : 0 Skipped (treated as error) : 0 Edge jitter error (maybe fixed) : 0 Atom jitter error (maybe fixed) : 0 Drift error (maybe fixed) : 0 Dropped bytes error (maybe fixed) : 0 Duplicated bytes error (maybe fixed) : 0

Track 03 Filename : /Users/kgpat/Desktop/Convert/JLNFflac/03 Kevin Manthei - J'onn J'onzz Arrives.flac Pre-gap length : 00:01:00

CRC32 hash : 174D4350 CRC32 hash (skip zero) : 482F7260 AccurateRip signature : F38A4150 ->Accurately ripped! (confidence 4) Statistics Read error : 0 Skipped (treated as error) : 0 Edge jitter error (maybe fixed) : 0 Atom jitter error (maybe fixed) : 0 Drift error (maybe fixed) : 0 Dropped bytes error (maybe fixed) : 0 Duplicated bytes error (maybe fixed) : 0

Track 04 Filename : /Users/kgpat/Desktop/Convert/JLNFflac/04 Kevin Manthei - Wonder Woman Recounts/J'onzz Watches TV.flac Pre-gap length : 00:01:00

CRC32 hash : BCCBED9C CRC32 hash (skip zero) : ADDF81A6 AccurateRip signature : 86528566 ->Accurately ripped! (confidence 4) Statistics Read error : 0 Skipped (treated as error) : 0 Edge jitter error (maybe fixed) : 0 Atom jitter error (maybe fixed) : 0 Drift error (maybe fixed) : 0 Dropped bytes error (maybe fixed) : 0 Duplicated bytes error (maybe fixed) : 0

Track 05 Filename : /Users/kgpat/Desktop/Convert/JLNFflac/05 Kevin Manthei - The Flash Saves Las Vegas.flac Pre-gap length : 00:01:00

CRC32 hash : FFD56DC6 CRC32 hash (skip zero) : 143069BF AccurateRip signature : 658DA2FE ->Accurately ripped! (confidence 4) Statistics Read error : 0 Skipped (treated as error) : 0 Edge jitter error (maybe fixed) : 0 Atom jitter error (maybe fixed) : 0 Drift error (maybe fixed) : 0 Dropped bytes error (maybe fixed) : 0 Duplicated bytes error (maybe fixed) : 0

Track 06 Filename : /Users/kgpat/Desktop/Convert/JLNFflac/06 Kevin Manthei - J'onn Becomes John/Church Brawl.flac Pre-gap length : 00:01:00

CRC32 hash : 9E6DEF88 CRC32 hash (skip zero) : 2D818691 AccurateRip signature : 3D98D9EE ->Accurately ripped! (confidence 4) Statistics Read error : 0 Skipped (treated as error) : 0 Edge jitter error (maybe fixed) : 0 Atom jitter error (maybe fixed) : 0 Drift error (maybe fixed) : 0 Dropped bytes error (maybe fixed) : 0 Duplicated bytes error (maybe fixed) : 0

Track 07 Filename : /Users/kgpat/Desktop/Convert/JLNFflac/07 Kevin Manthei - Carol & Hal Banter.flac Pre-gap length : 00:01:00

CRC32 hash : C29F784C CRC32 hash (skip zero) : 1668343A AccurateRip signature : 05A80ADB ->Accurately ripped! (confidence 4) Statistics Read error : 0 Skipped (treated as error) : 0 Edge jitter error (maybe fixed) : 0 Atom jitter error (maybe fixed) : 0 Drift error (maybe fixed) : 0 Dropped bytes error (maybe fixed) : 0 Duplicated bytes error (maybe fixed) : 0

Track 08 Filename : /Users/kgpat/Desktop/Convert/JLNFflac/08 Kevin Manthei - Driving To Ferris/The Real Ferris.flac Pre-gap length : 00:01:00

CRC32 hash : B71A6A9D CRC32 hash (skip zero) : BC98665A AccurateRip signature : 22BA8EAA ->Accurately ripped! (confidence 4) Statistics Read error : 0 Skipped (treated as error) : 0 Edge jitter error (maybe fixed) : 0 Atom jitter error (maybe fixed) : 0 Drift error (maybe fixed) : 0 Dropped bytes error (maybe fixed) : 0 Duplicated bytes error (maybe fixed) : 0

Track 09 Filename : /Users/kgpat/Desktop/Convert/JLNFflac/09 Kevin Manthei - Hal's Mission Revealed/Batman Surprises J'onn/The Flash Fights Gorilla.flac Pre-gap length : 00:01:00

CRC32 hash : FE8B0A69 CRC32 hash (skip zero) : 0AFA4338 AccurateRip signature : F226742A ->Accurately ripped! (confidence 4) Statistics Read error : 0 Skipped (treated as error) : 0 Edge jitter error (maybe fixed) : 0 Atom jitter error (maybe fixed) : 0 Drift error (maybe fixed) : 0 Dropped bytes error (maybe fixed) : 0 Duplicated bytes error (maybe fixed) : 0

Track 10 Filename : /Users/kgpat/Desktop/Convert/JLNFflac/10 Kevin Manthei - Crazy Scientist.flac Pre-gap length : 00:01:00

CRC32 hash : D8472BDB CRC32 hash (skip zero) : E5E182D1 AccurateRip signature : 103CBAFE ->Accurately ripped! (confidence 4) Statistics Read error : 0 Skipped (treated as error) : 0 Edge jitter error (maybe fixed) : 0 Atom jitter error (maybe fixed) : 0 Drift error (maybe fixed) : 0 Dropped bytes error (maybe fixed) : 0 Duplicated bytes error (maybe fixed) : 0

Track 11 Filename : /Users/kgpat/Desktop/Convert/JLNFflac/11 Kevin Manthei - J'onzz Contemplates/J'onzz Is Leaving.flac Pre-gap length : 00:01:00

CRC32 hash : 70D0EF96 CRC32 hash (skip zero) : 260A1080 AccurateRip signature : 956CE90B ->Accurately ripped! (confidence 4) Statistics Read error : 0 Skipped (treated as error) : 0 Edge jitter error (maybe fixed) : 0 Atom jitter error (maybe fixed) : 0 Drift error (maybe fixed) : 0 Dropped bytes error (maybe fixed) : 0 Duplicated bytes error (maybe fixed) : 0

Track 12 Filename : /Users/kgpat/Desktop/Convert/JLNFflac/12 Kevin Manthei - To Space.flac Pre-gap length : 00:01:00

CRC32 hash : D4060138 CRC32 hash (skip zero) : D5755D23 AccurateRip signature : 682CB318 ->Accurately ripped! (confidence 4) Statistics Read error : 0 Skipped (treated as error) : 0 Edge jitter error (maybe fixed) : 0 Atom jitter error (maybe fixed) : 0 Drift error (maybe fixed) : 0 Dropped bytes error (maybe fixed) : 0 Duplicated bytes error (maybe fixed) : 0

Track 13 Filename : /Users/kgpat/Desktop/Convert/JLNFflac/13 Kevin Manthei - Mars Mission Mess.flac Pre-gap length : 00:01:00

CRC32 hash : ED7F4D98 CRC32 hash (skip zero) : 833FC2F4 AccurateRip signature : 75F4875D ->Accurately ripped! (confidence 4) Statistics Read error : 0 Skipped (treated as error) : 0 Edge jitter error (maybe fixed) : 0 Atom jitter error (maybe fixed) : 0 Drift error (maybe fixed) : 0 Dropped bytes error (maybe fixed) : 0 Duplicated bytes error (maybe fixed) : 0

Track 14 Filename : /Users/kgpat/Desktop/Convert/JLNFflac/14 Kevin Manthei - New Green Lantern.flac Pre-gap length : 00:01:00

CRC32 hash : FD8EB6EC CRC32 hash (skip zero) : 1774E4AD AccurateRip signature : E011DE3D ->Accurately ripped! (confidence 4) Statistics Read error : 0 Skipped (treated as error) : 0 Edge jitter error (maybe fixed) : 0 Atom jitter error (maybe fixed) : 0 Drift error (maybe fixed) : 0 Dropped bytes error (maybe fixed) : 0 Duplicated bytes error (maybe fixed) : 0

Track 15 Filename : /Users/kgpat/Desktop/Convert/JLNFflac/15 Kevin Manthei - Superman Ties It Up/J'onzz Bonds.flac Pre-gap length : 00:01:00

CRC32 hash : 2649AC60 CRC32 hash (skip zero) : 38CA7EDB AccurateRip signature : 79E589DE ->Accurately ripped! (confidence 4) Statistics Read error : 0 Skipped (treated as error) : 0 Edge jitter error (maybe fixed) : 0 Atom jitter error (maybe fixed) : 0 Drift error (maybe fixed) : 0 Dropped bytes error (maybe fixed) : 0 Duplicated bytes error (maybe fixed) : 0

Track 16 Filename : /Users/kgpat/Desktop/Convert/JLNFflac/16 Kevin Manthei - Island Revealed/Superman Down.flac Pre-gap length : 00:01:00

CRC32 hash : 85D8CFDC CRC32 hash (skip zero) : ED162320 AccurateRip signature : 39F72A8E ->Accurately ripped! (confidence 4) Statistics Read error : 0 Skipped (treated as error) : 0 Edge jitter error (maybe fixed) : 0 Atom jitter error (maybe fixed) : 0 Drift error (maybe fixed) : 0 Dropped bytes error (maybe fixed) : 0 Duplicated bytes error (maybe fixed) : 0

Track 17 Filename : /Users/kgpat/Desktop/Convert/JLNFflac/17 Kevin Manthei - Plan To Action.flac Pre-gap length : 00:01:00

CRC32 hash : 9849A16C CRC32 hash (skip zero) : 4F7DC49A AccurateRip signature : A6FFDA6E ->Accurately ripped! (confidence 4) Statistics Read error : 0 Skipped (treated as error) : 0 Edge jitter error (maybe fixed) : 0 Atom jitter error (maybe fixed) : 0 Drift error (maybe fixed) : 0 Dropped bytes error (maybe fixed) : 0 Duplicated bytes error (maybe fixed) : 0

Track 18 Filename : /Users/kgpat/Desktop/Convert/JLNFflac/18 Kevin Manthei - Thick Of Battle.flac Pre-gap length : 00:01:00

CRC32 hash : 838D3F27 CRC32 hash (skip zero) : E5D4AF15 AccurateRip signature : 660C9286 ->Accurately ripped! (confidence 4) Statistics Read error : 0 Skipped (treated as error) : 0 Edge jitter error (maybe fixed) : 0 Atom jitter error (maybe fixed) : 0 Drift error (maybe fixed) : 0 Dropped bytes error (maybe fixed) : 0 Duplicated bytes error (maybe fixed) : 0

Track 19 Filename : /Users/kgpat/Desktop/Convert/JLNFflac/19 Kevin Manthei - The Flash Vs Centre/Last Bit Of Business.flac Pre-gap length : 00:01:00

CRC32 hash : 57C1C97F CRC32 hash (skip zero) : F8A8A41A AccurateRip signature : 1C837CB1 ->Accurately ripped! (confidence 4) Statistics Read error : 0 Skipped (treated as error) : 0 Edge jitter error (maybe fixed) : 0 Atom jitter error (maybe fixed) : 0 Drift error (maybe fixed) : 0 Dropped bytes error (maybe fixed) : 0 Duplicated bytes error (maybe fixed) : 0

Track 20 Filename : /Users/kgpat/Desktop/Convert/JLNFflac/20 Kevin Manthei - Victory.flac Pre-gap length : 00:01:00

CRC32 hash : 6B15C23F CRC32 hash (skip zero) : 42DCC920 AccurateRip signature : ED7861B0 ->Accurately ripped! (confidence 4) Statistics Read error : 0 Skipped (treated as error) : 0 Edge jitter error (maybe fixed) : 0 Atom jitter error (maybe fixed) : 0 Drift error (maybe fixed) : 0 Dropped bytes error (maybe fixed) : 0 Duplicated bytes error (maybe fixed) : 0

Track 21 Filename : /Users/kgpat/Desktop/Convert/JLNFflac/21 Kevin Manthei - End Credits.flac Pre-gap length : 00:01:00

CRC32 hash : 7B06A4F6 CRC32 hash (skip zero) : 65934BFE AccurateRip signature : 679FD5FA ->Accurately ripped! (confidence 4) Statistics Read error : 0 Skipped (treated as error) : 0 Edge jitter error (maybe fixed) : 0 Atom jitter error (maybe fixed) : 0 Drift error (maybe fixed) : 0 Dropped bytes error (maybe fixed) : 0 Duplicated bytes error (maybe fixed) : 0

No errors occurred

End of status report
TITLE "Justice League: The New Frontier"PERFORMER "Kevin Manthei"REM GENRE "Soundtrack"REM DATE "2008"REM DISCNUMBER 1REM TOTALDISCS 1REM DISCID 2A0D7415FILE "01 - Main Titles.wav" WAVE TRACK 01 AUDIO TITLE "Main Titles" SONGWRITER "Kevin Manthei" FLAGS DCP INDEX 01 00:00:00 TRACK 02 AUDIO TITLE "The Centre / Hal Shot Down" SONGWRITER "Kevin Manthei" FLAGS DCP INDEX 00 02:01:52FILE "02 - The Centre - Hal Shot Down.wav" WAVE INDEX 01 00:00:00 TRACK 03 AUDIO TITLE "J'onn J'onzz Arrives" SONGWRITER "Kevin Manthei" FLAGS DCP INDEX 00 02:50:69FILE "03 - J'onn J'onzz Arrives.wav" WAVE INDEX 01 00:00:00 TRACK 04 AUDIO TITLE "Wonder Woman Recounts / J'onzz Watches TV" SONGWRITER "Kevin Manthei" FLAGS DCP INDEX 00 00:51:01FILE "04 - Wonder Woman Recounts - J'onzz Watches TV.wav" WAVE INDEX 01 00:00:00 TRACK 05 AUDIO TITLE "The Flash Saves Las Vegas" SONGWRITER "Kevin Manthei" FLAGS DCP INDEX 00 02:11:16FILE "05 - The Flash Saves Las Vegas.wav" WAVE INDEX 01 00:00:00 TRACK 06 AUDIO TITLE "J'onn Becomes John / Church Brawl" SONGWRITER "Kevin Manthei" FLAGS DCP INDEX 00 03:32:46FILE "06 - J'onn Becomes John - Church Brawl.wav" WAVE INDEX 01 00:00:00 TRACK 07 AUDIO TITLE "Carol and Hal Banter" SONGWRITER "Kevin Manthei" FLAGS DCP INDEX 00 03:12:48FILE "07 - Carol and Hal Banter.wav" WAVE INDEX 01 00:00:00 TRACK 08 AUDIO TITLE "Driving to Ferris / The Real Ferris" SONGWRITER "Kevin Manthei" FLAGS DCP INDEX 00 00:22:34FILE "08 - Driving to Ferris - The Real Ferris.wav" WAVE INDEX 01 00:00:00 TRACK 09 AUDIO TITLE "Hal's Mission Revealed / Batman Surprises J'onn / The Flash Fights Gorilla" SONGWRITER "Kevin Manthei" FLAGS DCP INDEX 00 01:34:49FILE "09 - Hal's Mission Revealed - Batman Surprises J'onn - The Flash Fights Gorilla.wav" WAVE INDEX 01 00:00:00 TRACK 10 AUDIO TITLE "Crazy Scientist" SONGWRITER "Kevin Manthei" FLAGS DCP INDEX 00 02:52:63FILE "10 - Crazy Scientist.wav" WAVE INDEX 01 00:00:00 TRACK 11 AUDIO TITLE "J'onzz Contemplates / J'onzz is Leaving" SONGWRITER "Kevin Manthei" FLAGS DCP INDEX 00 01:37:58FILE "11 - J'onzz Contemplates - J'onzz is Leaving.wav" WAVE INDEX 01 00:00:00 TRACK 12 AUDIO TITLE "To Space" SONGWRITER "Kevin Manthei" FLAGS DCP INDEX 00 01:18:20FILE "12 - To Space.wav" WAVE INDEX 01 00:00:00 TRACK 13 AUDIO TITLE "Mars Mission Mess" SONGWRITER "Kevin Manthei" FLAGS DCP INDEX 00 01:27:46FILE "13 - Mars Mission Mess.wav" WAVE INDEX 01 00:00:00 TRACK 14 AUDIO TITLE "New Green Lantern" SONGWRITER "Kevin Manthei" FLAGS DCP INDEX 00 04:13:52FILE "14 - New Green Lantern.wav" WAVE INDEX 01 00:00:00 TRACK 15 AUDIO TITLE "Superman Ties it Up / J'onzz Bonds" SONGWRITER "Kevin Manthei" FLAGS DCP INDEX 00 03:56:11FILE "15 - Superman Ties it Up - J'onzz Bonds.wav" WAVE INDEX 01 00:00:00 TRACK 16 AUDIO TITLE "Island Revealed / Superman Down" SONGWRITER "Kevin Manthei" FLAGS DCP INDEX 00 02:41:69FILE "16 - Island Revealed - Superman Down.wav" WAVE INDEX 01 00:00:00 TRACK 17 AUDIO TITLE "Plan to Action" SONGWRITER "Kevin Manthei" FLAGS DCP INDEX 00 05:22:14FILE "17 - Plan to Action.wav" WAVE INDEX 01 00:00:00 TRACK 18 AUDIO TITLE "Thick of Battle" SONGWRITER "Kevin Manthei" FLAGS DCP INDEX 00 02:35:62FILE "18 - Thick of Battle.wav" WAVE INDEX 01 00:00:00 TRACK 19 AUDIO TITLE "The Flash Vs Centre / Last Bit of Business" SONGWRITER "Kevin Manthei" FLAGS DCP INDEX 00 04:32:71FILE "19 - The Flash Vs Centre - Last Bit of Business.wav" WAVE INDEX 01 00:00:00 TRACK 20 AUDIO TITLE "Victory" SONGWRITER "Kevin Manthei" FLAGS DCP INDEX 00 03:37:30FILE "20 - Victory.wav" WAVE INDEX 01 00:00:00 TRACK 21 AUDIO TITLE "End Credits" SONGWRITER "Kevin Manthei" FLAGS DCP INDEX 00 03:09:24FILE "21 - End Credits.wav" WAVE INDEX 01 00:00:00
-----------------------

DON'T MODIFY THIS FILE

-----------------------

PERFORMER: auCDtect Task Manager, ver. 1.6.0 RC1 build 1.6.0.1Copyright (c) 2008-2010 y-soft. All rights reservedhttp://y-soft.org

ANALYZER: auCDtect: CD records authenticity detector, version 0.8.2Copyright (c) 2004 Oleg Berngardt. All rights reserved.Copyright (c) 2004 Alexander Djourik. All rights reserved.

FILE: 21 - End Credits.flac Size: 21454201 Hash: 5F9D97822AAC38CD372379C70CCF3397 Accuracy: -m0 Conclusion: CDDA 99% Signature: 1181856B7133C79C016D0925679BD86986C91CB6FILE: 20 - Victory.flac Size: 19935138 Hash: 32D58835502D09E4CB8A2300154174E8 Accuracy: -m0 Conclusion: CDDA 100% Signature: C51C7BAC60EE391468FD16B660330F299E606793FILE: 19 - The Flash Vs Centre - Last Bit of Business.flac Size: 25320248 Hash: 5AFC153638A577F01C187052837C51CC Accuracy: -m0 Conclusion: CDDA 100% Signature: 9AF1EE8B465A84A4D099A02DB476D055EFCD8C62FILE: 18 - Thick of Battle.flac Size: 32054462 Hash: 71EC8C445D0409DAC9C5279ABAA1D6D7 Accuracy: -m0 Conclusion: CDDA 99% Signature: 7419D741F48514AF787E813A1FE90C93137A7F68FILE: 17 - Plan to Action.flac Size: 15838211 Hash: E9E34EF08B7060886C4C595658D62AE3 Accuracy: -m0 Conclusion: CDDA 100% Signature: D81A9AA65A8D27723556F070AF08D28BC19C742EFILE: 16 - Island Revealed - Superman Down.flac Size: 31540903 Hash: 8C3F546897EA0CB94DD0A8B0E9659689 Accuracy: -m0 Conclusion: CDDA 100% Signature: 25B88B018C6A5C044432BD3F674184137249E73CFILE: 15 - Superman Ties it Up - J'onzz Bonds.flac Size: 15009832 Hash: 4E93D149EFFDC26E7B35BE45A703C458 Accuracy: -m0 Conclusion: CDDA 100% Signature: C10C0BC54ED09AD59BE16870E868E94686BCAA33FILE: 14 - New Green Lantern.flac Size: 20623060 Hash: 4E253EF4C1A0EEB439253CABFDCB759E Accuracy: -m0 Conclusion: CDDA 100% Signature: F0B31D99778806691A6F50380C093170E7205067FILE: 13 - Mars Mission Mess.flac Size: 29208061 Hash: A3DEC3F0EB455988F0E34E9A817FC4D3 Accuracy: -m0 Conclusion: CDDA 100% Signature: FBB22FC7EBEBFE560C450BC6086C0B074EB21ECBFILE: 12 - To Space.flac Size: 10499646 Hash: 0A4A47DE174A80BBE4C6CCD3D27A72C2 Accuracy: -m0 Conclusion: CDDA 100% Signature: 96600F6A1D4CF646A2E1806A33B87E5605FE5A3BFILE: 11 - J'onzz Contemplates - J'onzz is Leaving.flac Size: 7065963 Hash: 31AA0FCC0DD80BED4A8B68FC76648C68 Accuracy: -m0 Conclusion: CDDA 100% Signature: 902BBBC7E4AFCD7D10E4B1C2F6903F4EF2A0D0D0FILE: 10 - Crazy Scientist.flac Size: 8677078 Hash: 00C3C77A072A062C16E271FCB5B75F3A Accuracy: -m0 Conclusion: CDDA 100% Signature: 3D435689C4E89368F57F0AD6FE1E7334C65D336BFILE: 09 - Hal's Mission Revealed - Batman Surprises J'onn - The Flash Fights Gorilla.flac Size: 16351692 Hash: 014F3AF641E17B57ADE1A817758F43AE Accuracy: -m0 Conclusion: CDDA 100% Signature: BFF9F8D58FE7976006E7FB4BF2CCE907C5C2D4D9FILE: 08 - Driving to Ferris - The Real Ferris.flac Size: 9671922 Hash: 963938D2037E188DBE3A21CDD0630CF7 Accuracy: -m0 Conclusion: CDDA 100% Signature: DA45AB57971F16CD050C20322B74DD7403B3FDD5FILE: 07 - Carol and Hal Banter.flac Size: 2616007 Hash: 4D25CB94091E1C0914BC74D2BD6CF770 Accuracy: -m0 Conclusion: CDDA 99% Signature: 5014FC222FD4F10D8496E00CF6016402552568DAFILE: 06 - J'onn Becomes John - Church Brawl.flac Size: 19688823 Hash: 6374D5C6934C2B1A2C6438E99D15CE94 Accuracy: -m0 Conclusion: CDDA 100% Signature: 68D54187BE41B70E39FB3C072CFF71269810DCEFFILE: 05 - The Flash Saves Las Vegas.flac Size: 21620414 Hash: 4BD14551583391B05B7776731FF4BEB1 Accuracy: -m0 Conclusion: CDDA 100% Signature: A0CCC6EF018253DC1D2F2755544C0ECC9858FB03FILE: 04 - Wonder Woman Recounts - J'onzz Watches TV.flac Size: 12289632 Hash: 9F216B960BA710AEE927811BD3B86D18 Accuracy: -m0 Conclusion: CDDA 100% Signature: EFD5A460927776124232B0028A33F2026328624AFILE: 03 - J'onn J'onzz Arrives.flac Size: 4984445 Hash: 1E4CF4301376CDF260E25EBF5DB9F404 Accuracy: -m0 Conclusion: CDDA 100% Signature: 8C25FECB335FFAFEACD2C3D20D261EC051278145FILE: 02 - The Centre - Hal Shot Down.flac Size: 15402213 Hash: E92C7086DA4C4E3D665481DAB770B44B Accuracy: -m0 Conclusion: CDDA 99% Signature: 1C49AA40C3A7DCC6516C455DFE3BCEFCA9A1A0EBFILE: 01 - Main Titles.flac Size: 13710849 Hash: 7FD047A0BA18EB9F55F669767F917FC8 Accuracy: -m0 Conclusion: CDDA 100% Signature: E2CDAE9EF0323AA99532E1C1DC6712E152385229
названия файлов, теги и .cue были отредактированы
Score: 72 (out of 100)
The following properties decreased the score:
No "Scan ReplayGain" info (does not affect audio data), -1 point [99]
Inconsistency in error sector(s) not found on every track, -5 points [94]
No test before copy on track 1, -1 points [93]
No test before copy on track 2, -1 points [92]
No test before copy on track 3, -1 points [91]
No test before copy on track 4, -1 points [90]
No test before copy on track 5, -1 points [89]
No test before copy on track 6, -1 points [88]
No test before copy on track 7, -1 points [87]
No test before copy on track 8, -1 points [86]
No test before copy on track 9, -1 points [85]
No test before copy on track 10, -1 points [84]
No test before copy on track 11, -1 points [83]
No test before copy on track 12, -1 points [82]
No test before copy on track 13, -1 points [81]
No test before copy on track 14, -1 points [80]
No test before copy on track 15, -1 points [79]
No test before copy on track 16, -1 points [78]
No test before copy on track 17, -1 points [77]
No test before copy on track 18, -1 points [76]
No test before copy on track 19, -1 points [75]
No test before copy on track 20, -1 points [74]
No test before copy on track 21, -1 points [73]
XLD Checksum plugin not installed (no XLD Signature present), -1 point [72]


Трекер:  [ 05-Мар-2015 00:00 ]

  

Скачать .torrent

Размер .torrent файла 16 KB


Размер: 362 MB
Хэш (hash) релиза: c2cf34e3cb9473335cdd0c0335b2d8f65e172a61

Еще никто не оставлял запись к записи скачать торрент Лига справедливости: Новый барьер Justice League: The New Frontier . Будь первым!

!Обратная связь