Скачать через торрент К-он! бесплатно Аниме Все серии на русском torrent

Если у вас наблюдаются проблемы со скриншотами, переходом по ссылками, скачиванием торрентов - проблемы в блокировщике рекламы AdBlock. #хорошегоДня!


Статистика раздачи
Размер:  1.95 GB   |    Зарегистрирован:  2 года 9 месяцев   |    .torrent скачан:  38 раз   |   
Раздают:  1  
   
Загрузка...
 
Автор Сообщение

Galfimbul

avatar Galfimbul


К-он! (фильм) / K-On Movie / Eiga K-On!

Страна: Япония
Год выпуска: 2011 г.
Жанр: комедия, музыка, школа
Тип: Movie
Продолжительность: 110 мин.
Режиссер: Ямада Наоко
Студия:
Перевод: Русские субиттры от Hyakka Ryoran Fansubs & Stan WarHammer & Nesitach (полные); | В составе контейнера.
Переводчики: Evafan, Nesitach, SeeR, Stan WarHammer;

Описание: Продолжение истории про участниц клуба лёгкой музыки. На этот раз, в честь окончания школы, девчонки решили сделать себе маленький подарок - слетать за границу! И после долгих и серьёзных раздумий выбор пал на лондон, колыбель рок-музыки!

Качество: BDRip
Тип релиза: Без хардсаба
Формат видео: MKV
Наличие линковки: Нет
Релиз/Автор рипа: Собственный рип
Видео: HEVC, 1920х1080, (10bit), 1792 Кбит/сек, 23.976 fps
Аудио JAP: OGG Vorbis, 256 Кбит/сек, 2 канала, 48,0 КГц (в составе контейнера)
Аудио RUS: AC-3, 448 Kbps, 48 kHz, 6 ch (внешним файлом)
Сэмпл: http://multi-up.com/1037576
многоголосая от Renegade Team & Anilibria & Lucky Clover (Eladiel,Azart,Say,Fynnely,Zlo,Silv)
ОбщееУникальный идентификатор : 213277617344959187886836774057140429291 (0xA073C664839594BAB079569D631621EB)Полное имя : D:\ANIME\K-On Movie_[BDrip 1920x1080 x265 10 bit]\K-On Movie_[BDrip 1920x1080 x265 10 bit].mkvФормат : MatroskaВерсия формата : Version 4 / Version 2Размер файла : 1,60 ГбайтПродолжительность : 1 ч. 49 м.Режим общего битрейта : ПеременныйОбщий поток : 2090 Кбит/секДата кодирования : UTC 2015-03-05 13:50:34Программа кодирования : mkvmerge v7.7.0 ('Six Voices') 64bit built on Feb 28 2015 23:39:33Библиотека кодирования : libebml v1.3.1 + libmatroska v1.4.2DURATION : 01:48:13.560000000NUMBER_OF_FRAMES : 1909NUMBER_OF_BYTES : 133310_STATISTICS_WRITING_APP : mkvmerge v7.7.0 ('Six Voices') 64bit built on Feb 28 2015 23:39:33_STATISTICS_WRITING_DATE_UTC : 2015-03-05 13:50:34_STATISTICS_TAGS : BPS DURATION NUMBER_OF_FRAMES NUMBER_OF_BYTES

ВидеоИдентификатор : 1Формат : HEVCФормат/Информация : High Efficiency Video CodingИдентификатор кодека : V_MPEGH/ISO/HEVCПродолжительность : 1 ч. 49 м.Битрейт : 1792 Кбит/секШирина : 1920 пикселейВысота : 1080 пикселейСоотношение сторон : 16:9Режим частоты кадров : ПостоянныйЧастота кадров : 23,976 кадра/секБит/(Пиксели*Кадры) : 0.036Размер потока : 1,37 Гбайт (86%)Заголовок : HEVC, (10bit), 1536 Кбит/сек, 23.976 fpsЯзык : JapaneseDefault : ДаForced : Нет

АудиоИдентификатор : 2Формат : VorbisПараметр Floor формата : 1Идентификатор кодека : A_VORBISПродолжительность : 1 ч. 49 м.Вид битрейта : ПеременныйБитрейт : 256 Кбит/секКаналы : 2 каналаЧастота : 48,0 КГцМетод сжатия : С потерямиРазмер потока : 201 Мбайт (12%)Заголовок : OGG Vorbis, 256 Кбит/сек, 2 канала, 48,0 КГцБиблиотека кодирования : aoTuV 20110424 (UTC 2011-04-24)Язык : JapaneseDefault : ДаForced : Нет

ТекстИдентификатор : 3Формат : ASSИдентификатор кодека : S_TEXT/ASSИдентификатор кодека/Информация : Advanced Sub Station AlphaМетод сжатия : Без потерьЗаголовок : Перевод: Hyakka Ryoran Fansubs & Stan WarHammer & NesitachЯзык : RussianDefault : ДаForced : Нет
[url=...4216208]GlintBeer[/url] - значительно меньший размер при сохранении качества.
Данная раздача
В той раздаче
[url=...4178868]Molibden42[/url] - 1080p.
[url=...4133570]Ero_Giin_Sensei[/url] - значительно меньший размер при сохранении качества.
Данная раздача
В той раздаче
[url=...4133734]Smolya Kakoito[/url] - значительно меньший размер при сохранении качества.
Данная раздача
В той раздаче
[url=...4133733]oleg_aka_djmeg[/url] - BDRip_1080p.
Внимание!Рип в фомате HEVC, в настоящее время не поддерживается аппаратными проигрывателями.
Для корректного воспроизведения может потребоваться обновление ПО.Что такое HEVC:H.265/HEVC (High Efficiency Video Coding) - это новый стандарт кодирования видео.
Стандарт H.265/HEVC является логическим продолжением стандарта H.264/AVC (Advanced Video Coding), и харакетризуется более эффективными алгоритмами сжатия, а также поддержкой высокого разрешения вплоть до 8K UHD (8192x4320).
Первая версия стандарта H.265 была опубликована в начале 2013 года.Как смотреть HEVC:Любителям решения из коробки - установить последнюю версию на выбор:
Media Player Classic - Black Edition (MPC-BE)
VLC media player
Daum Pot Player
GOM Media Player

Любителям WMP и других плееров, использующих по умолчанию для воспроизведения системные кодеки+сплитеры - установить K-Lite Codec Pack версии 10.1.0 и выше.

Любимые плееры, не использующие по умолчанию для воспроизведения системные кодеки+сплитеры, нужно перенастроить на использование оных.


Трекер:  [ 11-Мар-2015 14:30 ]

  

Скачать .torrent

Размер .torrent файла 20 KB


Размер: 1.95 GB
Хэш (hash) релиза: 5f3c21d27eb9124334ffe696b5344047b38cab77
Подписка на обновления:

Торренты, похожие на К-он! скачать торрент

Форум Название Автор Размер S L Добавлен
Аниме | HD Rips ·· К-он! (фильм) / K-On / Eiga K-On! [Movie] [Без хардсаба] [RUS(ext), JAP, SUB] [2011 г., комедия, музыка, школа, BDRip] [720p] Galfimbul 26839585172.5 GB 0 0 1430941887

22:51

6-Май-15

Аниме | HD Rips ·· К-он! (фильм) / K-On Movie / [Movie] [Без хардсаба] [RUS(int), RUS(ext), SUB] [2011 г., комедия, музыка, школа, BDRip] [1080p] Galfimbul 22507563732.1 GB 0 0 1426017248

22:54

10-Мар-15

Манга ·· Kakifly - К-Он! - Средняя школа / K-On! - High School (K-On! Restart!) [manga] [главы 1-13] [2011 г., сэйнен, комедия, школа, повседневность] [incomplete] Galfimbul 2622231825 MB 0 0 1376339939

23:38

12-Авг-13

Манга ·· Kakifly - К-Он! - Колледж / K-On! - College (K-On! Restart!) [manga] [главы 1-13] [2011 г., сэйнен, комедия, школа, повседневность] [incomplete] Galfimbul 3918113837 MB 0 0 1376339936

23:38

12-Авг-13

Аниме | HD Rips ·· К-он! (фильм) / Кэйон! (фильм) / Eiga K-On! / K-On! Never Forget Those Days!! (Ямада Наоко) [Movie] [Без хардсаба] [RUS(ext), JAP, SUB] [2011 г., комедия, музыка, школа, BDRip] [1080p] _N_ 1998170316918.61 GB 0 0 1350477060

15:31

17-Окт-12

Манга ·· Kakifly - К-Он! / K-On! (K-On! Restart!) [manga] [том 5 - 6, главы 1-21 (53-73)] [2011 - 2012 г., сэйнен, комедия, школа, повседневность] [incomplete] _N_ 5604744053 MB 0 0 1340878980

13:23

28-Июн-12

Манга ·· Kakifly - К-Он! / K-On! (K-On! Restart!) [manga] [том 5, главы 1-7 (53-59)] [2011 г., сэйнен, комедия, школа, повседневность] [incomplete] Yuki-san 2659029025 MB 0 0 1326126618

19:30

9-Янв-12

Еще никто не оставлял запись к записи скачать торрент К-он! . Будь первым!

!Обратная связь