Скачать через торрент музыку Долларовая трилогия La Trilogia Del Dollaro бесплатно без регистрации torrent

Если у вас наблюдаются проблемы со скриншотами, переходом по ссылками, скачиванием торрентов - проблемы в блокировщике рекламы AdBlock. #хорошегоДня!


Статистика раздачи
Размер:  304 MB   |    Зарегистрирован:  2 года 8 месяцев   |    .torrent скачан:  39 раз   |   
Раздают:  1  
   
Загрузка...
 
Автор Сообщение

Galfimbul

avatar Galfimbul


Долларовая трилогия / La Trilogia Del Dollaro

Название альбома: La trilogia del dollaro
Жанр: Score
Композитор: Ennio Morricone
Год выпуска диска: 1989
Год выпуска фильма: 1964/1965/1966
Страна-производитель диска: USA/Italy
Издатель (лейбл): RCA
Номер по каталогу: 74021
Аудиокодек: APE (*.ape)
Тип рипа: tracks+.cue
Битрейт аудио: lossless
Продолжительность: 66:28
Источник: собственный рип
Наличие сканов в содержимом раздачи: нет
Per Un Pugno Di Dollari (A Fistfull Of Dollars) (1964)

01 Per Un Pugno Di Dollari 1:49
02 Quasi Morto 1:42
03 Square Dance 1:35
04 L'Inseguimento 2:25
05 La Reazione 2:37
06 Senza Pietà 2:08
07 Titoli 3:00

Per Qualche Dollaro In Piu' (For A Few Dollars More) (1965)

08 La Resa Dei Conti 3:06
09 Poker D'Assi 1:20
10 Osservatori Osservati 2:03
11 Il Vizio Di Uccidere 2:26
12 Carillon 1:12
13 Il Colpo 2:22
14 Addio Colonnello 1:46
15 Per Qualche Dollaro In Più 2:53

Il Buono, Il Brutto, Il Cattivo (The Good The Bad And The Ugly) (1968)

16 Il Buono, Il Brutto, Il Cattivo (Titoli Di Testa) 2:42
17 Il Tramonto 1:18
18 Il Forte 2:24
19 Il Deserto 5:17
20 La Carrozza Dei Fantasmi 2:11
21 Marcetta 2:54
22 La Storia Di Un Soldato 3:56
23 Marcetta Senza Speranza 1:44
24 Morte Di Un Soldato 3:10
25 L'Estasi Dell'Oro 3:25
26 Triello (Titoli Finali) 5:03
Exact Audio Copy V1.0 beta 4 from 7. December 2014

EAC extraction logfile from 13. February 2015, 20:02

Ennio Morricone / La trilogia del dollaro

Used drive : Optiarc DVD RW AD-7200S Adapter: 1 ID: 0

Read mode : SecureUtilize accurate stream : YesDefeat audio cache : YesMake use of C2 pointers : No

Read offset correction : 48Overread into Lead-In and Lead-Out : NoFill up missing offset samples with silence : YesDelete leading and trailing silent blocks : NoNull samples used in CRC calculations : YesUsed interface : Native Win32 interface for Win NT & 2000Gap handling : Appended to previous track

Used output format : User Defined EncoderSelected bitrate : 1024 kBit/sQuality : HighAdd ID3 tag : NoCommand line compressor : C:\program files\Monkey's Audio\wapet.exeAdditional command line options : %dest% -t "Genre=%genre%" -t "Artist=%artist%" -t "Title=%title%" -t "Album=%albumtitle%" -t "Year=%year%" -t "Track=%tracknr%" -t "Comment=%comment%" mac.exe %source% %dest% -c4000

TOC of the extracted CD

Track | Start | Length | Start sector | End sector --------------------------------------------------------- 1 | 0:00.00 | 1:49.07 | 0 | 8181 2 | 1:49.07 | 1:42.13 | 8182 | 15844 3 | 3:31.20 | 1:35.30 | 15845 | 22999 4 | 5:06.50 | 2:25.25 | 23000 | 33899 5 | 7:32.00 | 2:37.10 | 33900 | 45684 6 | 10:09.10 | 2:08.32 | 45685 | 55316 7 | 12:17.42 | 3:00.45 | 55317 | 68861 8 | 15:18.12 | 3:06.23 | 68862 | 82834 9 | 18:24.35 | 1:20.50 | 82835 | 88884 10 | 19:45.10 | 2:03.00 | 88885 | 98109 11 | 21:48.10 | 2:26.17 | 98110 | 109076 12 | 24:14.27 | 1:12.00 | 109077 | 114476 13 | 25:26.27 | 2:22.45 | 114477 | 125171 14 | 27:48.72 | 1:46.33 | 125172 | 133154 15 | 29:35.30 | 2:53.55 | 133155 | 146184 16 | 32:29.10 | 2:42.67 | 146185 | 158401 17 | 35:12.02 | 1:18.15 | 158402 | 164266 18 | 36:30.17 | 2:24.33 | 164267 | 175099 19 | 38:54.50 | 5:17.62 | 175100 | 198936 20 | 44:12.37 | 2:11.08 | 198937 | 208769 21 | 46:23.45 | 2:54.05 | 208770 | 221824 22 | 49:17.50 | 3:56.20 | 221825 | 239544 23 | 53:13.70 | 1:44.07 | 239545 | 247351 24 | 54:58.02 | 3:10.58 | 247352 | 261659 25 | 58:08.60 | 3:25.57 | 261660 | 277091 26 | 61:34.42 | 5:03.43 | 277092 | 299859

Track 1

Filename D:\Ennio Morricone\(1989) La trilogia del dollaro\Ennio Morricone - La trilogia del dollaro - 01. Per un pugno di dollari - Per un pugno di dollari.wav

Pre-gap length 0:00:02.00

Peak level 74.9 % Extraction speed 2.0 X Track quality 100.0 % Test CRC 4793BA68 Copy CRC 4793BA68 Accurately ripped (confidence 2) [5A66C8C6] (AR v2) Copy OK

Track 2

Filename D:\Ennio Morricone\(1989) La trilogia del dollaro\Ennio Morricone - La trilogia del dollaro - 02. Per un pugno di dollari - Quasi morto.wav

Pre-gap length 0:00:01.52

Peak level 78.0 % Extraction speed 2.0 X Track quality 100.0 % Test CRC 6805BA3B Copy CRC 6805BA3B Accurately ripped (confidence 2) [E58F67DB] (AR v2) Copy OK

Track 3

Filename D:\Ennio Morricone\(1989) La trilogia del dollaro\Ennio Morricone - La trilogia del dollaro - 03. Per un pugno di dollari - Square Dance.wav

Pre-gap length 0:00:02.23

Peak level 74.2 % Extraction speed 2.1 X Track quality 100.0 % Test CRC 610DCF65 Copy CRC 610DCF65 Accurately ripped (confidence 2) [AEE03D34] (AR v2) Copy OK

Track 4

Filename D:\Ennio Morricone\(1989) La trilogia del dollaro\Ennio Morricone - La trilogia del dollaro - 04. Per un pugno di dollari - L'inseguimento.wav

Pre-gap length 0:00:01.50

Peak level 80.6 % Extraction speed 2.4 X Track quality 100.0 % Test CRC D3C1D02C Copy CRC D3C1D02C Accurately ripped (confidence 2) [E4990277] (AR v2) Copy OK

Track 5

Filename D:\Ennio Morricone\(1989) La trilogia del dollaro\Ennio Morricone - La trilogia del dollaro - 05. Per un pugno di dollari - La reazione.wav

Pre-gap length 0:00:02.45

Peak level 74.9 % Extraction speed 2.7 X Track quality 100.0 % Test CRC 642E6DEB Copy CRC 642E6DEB Accurately ripped (confidence 2) [5DB205B4] (AR v2) Copy OK

Track 6

Filename D:\Ennio Morricone\(1989) La trilogia del dollaro\Ennio Morricone - La trilogia del dollaro - 06. Per un pugno di dollari - Senza pieta.wav

Pre-gap length 0:00:02.63

Peak level 79.0 % Extraction speed 2.6 X Track quality 100.0 % Test CRC E2A07639 Copy CRC E2A07639 Accurately ripped (confidence 2) [98D3033E] (AR v2) Copy OK

Track 7

Filename D:\Ennio Morricone\(1989) La trilogia del dollaro\Ennio Morricone - La trilogia del dollaro - 07. Per un pugno di dollari - Titoli.wav

Pre-gap length 0:00:01.60

Peak level 64.9 % Extraction speed 2.5 X Track quality 99.9 % Test CRC 4ACF4CA9 Copy CRC 4ACF4CA9 Accurately ripped (confidence 2) [B91AD4C7] (AR v2) Copy OK

Track 8

Filename D:\Ennio Morricone\(1989) La trilogia del dollaro\Ennio Morricone - La trilogia del dollaro - 08. Per qualche dollaro in piu - La resa dei conti.wav

Pre-gap length 0:00:04.72

Peak level 85.0 % Extraction speed 3.1 X Track quality 100.0 % Test CRC F6CD4D4B Copy CRC F6CD4D4B Accurately ripped (confidence 2) [90E4C533] (AR v2) Copy OK

Track 9

Filename D:\Ennio Morricone\(1989) La trilogia del dollaro\Ennio Morricone - La trilogia del dollaro - 09. Per qualche dollaro in piu - Poker d'assi.wav

Pre-gap length 0:00:02.23

Peak level 43.1 % Extraction speed 2.0 X Track quality 99.8 % Test CRC E82A8E3E Copy CRC E82A8E3E Accurately ripped (confidence 2) [13AFF10D] (AR v2) Copy OK

Track 10

Filename D:\Ennio Morricone\(1989) La trilogia del dollaro\Ennio Morricone - La trilogia del dollaro - 10. Per qualche dollaro in piu - Osservatori osservati.wav

Pre-gap length 0:00:02.25

Peak level 53.9 % Extraction speed 3.1 X Track quality 100.0 % Test CRC 33C309AD Copy CRC 33C309AD Accurately ripped (confidence 2) [3A602E2A] (AR v2) Copy OK

Track 11

Filename D:\Ennio Morricone\(1989) La trilogia del dollaro\Ennio Morricone - La trilogia del dollaro - 11. Per qualche dollaro in piu - Il vizio di uccidere.wav

Pre-gap length 0:00:02.03

Peak level 77.6 % Extraction speed 3.3 X Track quality 100.0 % Test CRC 3782F403 Copy CRC 3782F403 Accurately ripped (confidence 2) [8D69A024] (AR v2) Copy OK

Track 12

Filename D:\Ennio Morricone\(1989) La trilogia del dollaro\Ennio Morricone - La trilogia del dollaro - 12. Per qualche dollaro in piu - Carillon.wav

Pre-gap length 0:00:02.17

Peak level 24.3 % Extraction speed 2.7 X Track quality 100.0 % Test CRC 08E9BB05 Copy CRC 08E9BB05 Accurately ripped (confidence 2) [83EB57FA] (AR v2) Copy OK

Track 13

Filename D:\Ennio Morricone\(1989) La trilogia del dollaro\Ennio Morricone - La trilogia del dollaro - 13. Per qualche dollaro in piu - Il colpo.wav

Pre-gap length 0:00:01.67

Peak level 75.9 % Extraction speed 3.4 X Track quality 100.0 % Test CRC 39A3508D Copy CRC 39A3508D Accurately ripped (confidence 2) [953AA614] (AR v2) Copy OK

Track 14

Filename D:\Ennio Morricone\(1989) La trilogia del dollaro\Ennio Morricone - La trilogia del dollaro - 14. Per qualche dollaro in piu - Addio colonnello.wav

Pre-gap length 0:00:02.00

Peak level 61.9 % Extraction speed 3.2 X Track quality 100.0 % Test CRC 0CCF14AA Copy CRC 0CCF14AA Accurately ripped (confidence 2) [44BA6D93] (AR v2) Copy OK

Track 15

Filename D:\Ennio Morricone\(1989) La trilogia del dollaro\Ennio Morricone - La trilogia del dollaro - 15. Per qualche dollaro in piu - Per qualche dollaro in piu.wav

Pre-gap length 0:00:02.53

Peak level 73.4 % Extraction speed 3.7 X Track quality 100.0 % Test CRC 71485EEA Copy CRC 71485EEA Accurately ripped (confidence 2) [2F959C3F] (AR v2) Copy OK

Track 16

Filename D:\Ennio Morricone\(1989) La trilogia del dollaro\Ennio Morricone - La trilogia del dollaro - 16. Il buono, il brutto, il cattivo - Il buono, il brutto, il cattivo (titoli di testa).wav

Pre-gap length 0:00:05.13

Peak level 98.2 % Extraction speed 3.7 X Track quality 100.0 % Test CRC 92664926 Copy CRC 92664926 Accurately ripped (confidence 2) [134C8F2B] (AR v2) Copy OK

Track 17

Filename D:\Ennio Morricone\(1989) La trilogia del dollaro\Ennio Morricone - La trilogia del dollaro - 17. Il buono, il brutto, il cattivo - Il tramonto.wav

Pre-gap length 0:00:03.30

Peak level 37.4 % Extraction speed 3.2 X Track quality 100.0 % Test CRC 66BD66D6 Copy CRC 66BD66D6 Accurately ripped (confidence 2) [AB05492C] (AR v2) Copy OK

Track 18

Filename D:\Ennio Morricone\(1989) La trilogia del dollaro\Ennio Morricone - La trilogia del dollaro - 18. Il buono, il brutto, il cattivo - Il forte.wav

Pre-gap length 0:00:04.05

Peak level 61.4 % Extraction speed 3.2 X Track quality 99.9 % Test CRC 96372AD5 Copy CRC 96372AD5 Accurately ripped (confidence 2) [B714B25B] (AR v2) Copy OK

Track 19

Filename D:\Ennio Morricone\(1989) La trilogia del dollaro\Ennio Morricone - La trilogia del dollaro - 19. Il buono, il brutto, il cattivo - Il deserto.wav

Pre-gap length 0:00:04.23

Peak level 99.3 % Extraction speed 4.5 X Track quality 100.0 % Test CRC FD67486E Copy CRC FD67486E Accurately ripped (confidence 2) [9386C117] (AR v2) Copy OK

Track 20

Filename D:\Ennio Morricone\(1989) La trilogia del dollaro\Ennio Morricone - La trilogia del dollaro - 20. Il buono, il brutto, il cattivo - La carrozza dei fantasmi.wav

Pre-gap length 0:00:02.62

Peak level 69.5 % Extraction speed 3.3 X Track quality 99.9 % Test CRC 7FA39C7F Copy CRC 7FA39C7F Accurately ripped (confidence 2) [83A1F6FC] (AR v2) Copy OK

Track 21

Filename D:\Ennio Morricone\(1989) La trilogia del dollaro\Ennio Morricone - La trilogia del dollaro - 21. Il buono, il brutto, il cattivo - Marcetta.wav

Pre-gap length 0:00:03.38

Peak level 48.0 % Extraction speed 4.3 X Track quality 100.0 % Test CRC 8D5F6B10 Copy CRC 8D5F6B10 Accurately ripped (confidence 2) [595BD57B] (AR v2) Copy OK

Track 22

Filename D:\Ennio Morricone\(1989) La trilogia del dollaro\Ennio Morricone - La trilogia del dollaro - 22. Il buono, il brutto, il cattivo - La storia di un soldato.wav

Pre-gap length 0:00:03.43

Peak level 66.4 % Extraction speed 4.6 X Track quality 100.0 % Test CRC 4B9B881A Copy CRC 4B9B881A Accurately ripped (confidence 2) [AA0662BB] (AR v2) Copy OK

Track 23

Filename D:\Ennio Morricone\(1989) La trilogia del dollaro\Ennio Morricone - La trilogia del dollaro - 23. Il buono, il brutto, il cattivo - Marcetta senza speranza.wav

Pre-gap length 0:00:04.08

Peak level 41.2 % Extraction speed 4.1 X Track quality 100.0 % Test CRC EEC5B1C3 Copy CRC EEC5B1C3 Accurately ripped (confidence 2) [2DD89B3A] (AR v2) Copy OK

Track 24

Filename D:\Ennio Morricone\(1989) La trilogia del dollaro\Ennio Morricone - La trilogia del dollaro - 24. Il buono, il brutto, il cattivo - Morte di un soldato.wav

Pre-gap length 0:00:03.00

Peak level 77.5 % Extraction speed 4.6 X Track quality 100.0 % Test CRC 06D36038 Copy CRC 06D36038 Accurately ripped (confidence 2) [97456E10] (AR v2) Copy OK

Track 25

Filename D:\Ennio Morricone\(1989) La trilogia del dollaro\Ennio Morricone - La trilogia del dollaro - 25. Il buono, il brutto, il cattivo - L'estasi dell'oro.wav

Pre-gap length 0:00:03.20

Peak level 99.8 % Extraction speed 4.8 X Track quality 100.0 % Test CRC 16F24AAD Copy CRC 16F24AAD Accurately ripped (confidence 2) [1B3EA334] (AR v2) Copy OK

Track 26

Filename D:\Ennio Morricone\(1989) La trilogia del dollaro\Ennio Morricone - La trilogia del dollaro - 26. Il buono, il brutto, il cattivo - Triello (titoli finali).wav

Pre-gap length 0:00:03.12

Peak level 90.2 % Extraction speed 3.7 X Track quality 99.9 % Test CRC 7FA6E7D6 Copy CRC 7FA6E7D6 Accurately ripped (confidence 2) [0188D5A5] (AR v2) Copy OK

All tracks accurately ripped

No errors occurred

End of status report

==== Log checksum 95330461F22F58B8894D6965F8AC49EF8E71C173A097500AA41E411B34843662 ====
REM GENRE SoundtrackREM DATE 1989REM DISCID 600F9E1AREM COMMENT "ExactAudioCopy v1.0b4"PERFORMER "Ennio Morricone"TITLE "La trilogia del dollaro"FILE "Ennio Morricone - La trilogia del dollaro - 01. Per un pugno di dollari - Per un pugno di dollari.wav" WAVE TRACK 01 AUDIO TITLE "Per un pugno di dollari: Per un pugno di dollari" PERFORMER "Ennio Morricone" INDEX 01 00:00:00 TRACK 02 AUDIO TITLE "Per un pugno di dollari: Quasi morto" PERFORMER "Ennio Morricone" INDEX 00 01:47:30FILE "Ennio Morricone - La trilogia del dollaro - 02. Per un pugno di dollari - Quasi morto.wav" WAVE INDEX 01 00:00:00 TRACK 03 AUDIO TITLE "Per un pugno di dollari: Square Dance" PERFORMER "Ennio Morricone" INDEX 00 01:39:65FILE "Ennio Morricone - La trilogia del dollaro - 03. Per un pugno di dollari - Square Dance.wav" WAVE INDEX 01 00:00:00 TRACK 04 AUDIO TITLE "Per un pugno di dollari: L'inseguimento" PERFORMER "Ennio Morricone" INDEX 00 01:33:55FILE "Ennio Morricone - La trilogia del dollaro - 04. Per un pugno di dollari - L'inseguimento.wav" WAVE INDEX 01 00:00:00 TRACK 05 AUDIO TITLE "Per un pugno di dollari: La reazione" PERFORMER "Ennio Morricone" INDEX 00 02:22:55FILE "Ennio Morricone - La trilogia del dollaro - 05. Per un pugno di dollari - La reazione.wav" WAVE INDEX 01 00:00:00 TRACK 06 AUDIO TITLE "Per un pugno di dollari: Senza pieta" PERFORMER "Ennio Morricone" INDEX 00 02:34:22FILE "Ennio Morricone - La trilogia del dollaro - 06. Per un pugno di dollari - Senza pieta.wav" WAVE INDEX 01 00:00:00 TRACK 07 AUDIO TITLE "Per un pugno di dollari: Titoli" PERFORMER "Ennio Morricone" INDEX 00 02:06:47FILE "Ennio Morricone - La trilogia del dollaro - 07. Per un pugno di dollari - Titoli.wav" WAVE INDEX 01 00:00:00 TRACK 08 AUDIO TITLE "Per qualche dollaro in piu: La resa dei conti" PERFORMER "Ennio Morricone" INDEX 00 02:55:48FILE "Ennio Morricone - La trilogia del dollaro - 08. Per qualche dollaro in piu - La resa dei conti.wav" WAVE INDEX 01 00:00:00 TRACK 09 AUDIO TITLE "Per qualche dollaro in piu: Poker d'assi" PERFORMER "Ennio Morricone" INDEX 00 03:04:00FILE "Ennio Morricone - La trilogia del dollaro - 09. Per qualche dollaro in piu - Poker d'assi.wav" WAVE INDEX 01 00:00:00 TRACK 10 AUDIO TITLE "Per qualche dollaro in piu: Osservatori osservati" PERFORMER "Ennio Morricone" INDEX 00 01:18:25FILE "Ennio Morricone - La trilogia del dollaro - 10. Per qualche dollaro in piu - Osservatori osservati.wav" WAVE INDEX 01 00:00:00 TRACK 11 AUDIO TITLE "Per qualche dollaro in piu: Il vizio di uccidere" PERFORMER "Ennio Morricone" INDEX 00 02:00:72FILE "Ennio Morricone - La trilogia del dollaro - 11. Per qualche dollaro in piu - Il vizio di uccidere.wav" WAVE INDEX 01 00:00:00 TRACK 12 AUDIO TITLE "Per qualche dollaro in piu: Carillon" PERFORMER "Ennio Morricone" INDEX 00 02:24:00FILE "Ennio Morricone - La trilogia del dollaro - 12. Per qualche dollaro in piu - Carillon.wav" WAVE INDEX 01 00:00:00 TRACK 13 AUDIO TITLE "Per qualche dollaro in piu: Il colpo" PERFORMER "Ennio Morricone" INDEX 00 01:10:08FILE "Ennio Morricone - La trilogia del dollaro - 13. Per qualche dollaro in piu - Il colpo.wav" WAVE INDEX 01 00:00:00 TRACK 14 AUDIO TITLE "Per qualche dollaro in piu: Addio colonnello" PERFORMER "Ennio Morricone" INDEX 00 02:20:45FILE "Ennio Morricone - La trilogia del dollaro - 14. Per qualche dollaro in piu - Addio colonnello.wav" WAVE INDEX 01 00:00:00 TRACK 15 AUDIO TITLE "Per qualche dollaro in piu: Per qualche dollaro in piu" PERFORMER "Ennio Morricone" INDEX 00 01:43:55FILE "Ennio Morricone - La trilogia del dollaro - 15. Per qualche dollaro in piu - Per qualche dollaro in piu.wav" WAVE INDEX 01 00:00:00 TRACK 16 AUDIO TITLE "Il buono, il brutto, il cattivo: Il buono, il brutto, il cattivo (titoli di t..." PERFORMER "Ennio Morricone" INDEX 00 02:48:42FILE "Ennio Morricone - La trilogia del dollaro - 16. Il buono, il brutto, il cattivo - Il buono, il brutto, il cattivo (titoli di testa).wav" WAVE INDEX 01 00:00:00 TRACK 17 AUDIO TITLE "Il buono, il brutto, il cattivo: Il tramonto" PERFORMER "Ennio Morricone" INDEX 00 02:39:37FILE "Ennio Morricone - La trilogia del dollaro - 17. Il buono, il brutto, il cattivo - Il tramonto.wav" WAVE INDEX 01 00:00:00 TRACK 18 AUDIO TITLE "Il buono, il brutto, il cattivo: Il forte" PERFORMER "Ennio Morricone" INDEX 00 01:14:10FILE "Ennio Morricone - La trilogia del dollaro - 18. Il buono, il brutto, il cattivo - Il forte.wav" WAVE INDEX 01 00:00:00 TRACK 19 AUDIO TITLE "Il buono, il brutto, il cattivo: Il deserto" PERFORMER "Ennio Morricone" INDEX 00 02:20:10FILE "Ennio Morricone - La trilogia del dollaro - 19. Il buono, il brutto, il cattivo - Il deserto.wav" WAVE INDEX 01 00:00:00 TRACK 20 AUDIO TITLE "Il buono, il brutto, il cattivo: La carrozza dei fantasmi" PERFORMER "Ennio Morricone" INDEX 00 05:15:00FILE "Ennio Morricone - La trilogia del dollaro - 20. Il buono, il brutto, il cattivo - La carrozza dei fantasmi.wav" WAVE INDEX 01 00:00:00 TRACK 21 AUDIO TITLE "Il buono, il brutto, il cattivo: Marcetta" PERFORMER "Ennio Morricone" INDEX 00 02:07:45FILE "Ennio Morricone - La trilogia del dollaro - 21. Il buono, il brutto, il cattivo - Marcetta.wav" WAVE INDEX 01 00:00:00 TRACK 22 AUDIO TITLE "Il buono, il brutto, il cattivo: La storia di un soldato" PERFORMER "Ennio Morricone" INDEX 00 02:50:37FILE "Ennio Morricone - La trilogia del dollaro - 22. Il buono, il brutto, il cattivo - La storia di un soldato.wav" WAVE INDEX 01 00:00:00 TRACK 23 AUDIO TITLE "Il buono, il brutto, il cattivo: Marcetta senza speranza" PERFORMER "Ennio Morricone" INDEX 00 03:52:12FILE "Ennio Morricone - La trilogia del dollaro - 23. Il buono, il brutto, il cattivo - Marcetta senza speranza.wav" WAVE INDEX 01 00:00:00 TRACK 24 AUDIO TITLE "Il buono, il brutto, il cattivo: Morte di un soldato" PERFORMER "Ennio Morricone" INDEX 00 01:41:07FILE "Ennio Morricone - La trilogia del dollaro - 24. Il buono, il brutto, il cattivo - Morte di un soldato.wav" WAVE INDEX 01 00:00:00 TRACK 25 AUDIO TITLE "Il buono, il brutto, il cattivo: L'estasi dell'oro" PERFORMER "Ennio Morricone" INDEX 00 03:07:38FILE "Ennio Morricone - La trilogia del dollaro - 25. Il buono, il brutto, il cattivo - L'estasi dell'oro.wav" WAVE INDEX 01 00:00:00 TRACK 26 AUDIO TITLE "Il buono, il brutto, il cattivo: Triello (titoli finali)" PERFORMER "Ennio Morricone" INDEX 00 03:22:45FILE "Ennio Morricone - La trilogia del dollaro - 26. Il buono, il brutto, il cattivo - Triello (titoli finali).wav" WAVE INDEX 01 00:00:00
This Italian-only CD release is probably the best single-disc survey we'll ever see of Ennio Morricone's music from Sergio Leone's Man with No Name trilogy. Actually, there was hardly enough music in A Fistful of Dollars (1964) and For a Few Dollars More (1965) to fill up a whole LP, much less a CD, but in the U.S., the music from The Good, the Bad & the Ugly (1967) has been the exclusive province of United Artists Records (and its successor company, EMI Records) since the movie's release. But on this disc, all three scores are represented on 26 tracks, seven for A Fistful of Dollars, eight for For a Few Dollars More, and 11 for The Good, the Bad & the Ugly -- the last lacks the bonus tracks present on the recent expanded edition of the soundtrack CD, but it does have everything that was on the original EMI America release and the old UA LP. There's no annotation, but there wasn't on any of the original releases of this material either, and the sound is first-rate. As to the listening experience, it's fascinating to hear Morricone and, by extension, Leone, extend their reach with each score. A Fistful of Dollars had hardly any music at all, but what was there was highly memorable, from the trumpet-dominated "Per Un Pugno Di Dollar" through the eerie "Quasi Morto" (which anticipates the main theme), and the offbeat "Square Dance" -- all of it is effect music, some actually presented within the perception of the characters and all offered with an operatic intensity. By the time of For a Few Dollars More, Morricone is incorporating a key sound effect from the plot into his music in his quiet way, and proving that less is more. And both scores offers as their respective centerpieces hauntingly beautiful and ominous themes driven by acoustic guitar, whistles, and wordless choruses. By the time of The Good, the Bad & the Ugly, director and composer alike are creating full-blown operatic pieces, with arias, interludes, and choral settings, still with one foot in the music of the west, but now the larger-than-life west of the imagination, on a seemingly boundless dramatic canvas. The transitions between the three scores make for an awesome listening experience, almost as profound as the viewing experience to be found by juxtaposing all three movies.


Трекер:  [ 16-Мар-2015 11:30 ]

  

Скачать .torrent

Размер .torrent файла 16 KB


Размер: 304 MB
Хэш (hash) релиза: f84be41eb4998775d870731268ca6ba7d85b3c0d

Торренты, похожие на Долларовая трилогия La Trilogia Del Dollaro скачать торрент

Форум Название Автор Размер S L Добавлен
Саундтреки к фильмам и мультфильмам (lossless) ·· (Score) Долларовая трилогия / La Trilogia Del Dollaro (Colonne Sonore Originali) (by Ennio Morricone) - 1989 (1964 / 1965 / 1966), APE (tracks+.cue), lossless Galfimbul 323806934309 MB 0 0 1464459229

21:13

28-Май-16

Еще никто не оставлял запись к записи скачать торрент Долларовая трилогия La Trilogia Del Dollaro . Будь первым!

!Обратная связь