Скачать через торрент музыку Звездный путь: Фильм Star Trek: The Motion Picture бесплатно без регистрации torrent

Если у вас наблюдаются проблемы со скриншотами, переходом по ссылками, скачиванием торрентов - проблемы в блокировщике рекламы AdBlock. #хорошегоДня!


Статистика раздачи
Размер:  221 MB   |    Зарегистрирован:  2 года 8 месяцев   |    .torrent скачан:  34 раза   |   
Раздают:  1  
   
Загрузка...
 
Автор Сообщение

Galfimbul

avatar Galfimbul


Звездный путь: Фильм / Star Trek: The Motion Picture

Жанр: Score
Композитор: Jerry Goldsmith
Год выпуска диска: 1986
Год выпуска фильма: 1979
Страна-производитель диска: US
Издатель (лейбл): Columbia
Номер по каталогу: CK 36334
Аудиокодек: FLAC (*.flac)
Тип рипа: image+.cue
Битрейт аудио: lossless
Продолжительность: 00:40:02
Источник: Собственный рип
Наличие сканов в содержимом раздачи: да
Треклист:

01 Main Title / Klingon Battle 6:51
02 Leaving Drydock 3:29
03 The Cloud 5:00
04 The Enterprise 5:58
05 Ilia's Theme 3:01
06 Vejur Flyover 4:56
07 The Meld 3:15
08 Spock Walk 4:17
09 End Title 3:15
Exact Audio Copy V1.0 beta 4 from 7. December 2014

Отчёт EAC об извлечении, выполненном 17. марта 2015, 1:42

Jerry Goldsmith / Star Trek: The Motion Picture

Дисковод: PLEXTOR BD-R PX-B950SA Adapter: 1 ID: 0

Режим чтения : ДостоверностьИспользование точного потока : ДаОтключение кэша аудио : ДаИспользование указателей C2 : Нет

Коррекция смещения при чтении : 6Способность читать области Lead-in и Lead-out : НетЗаполнение пропущенных сэмплов тишиной : ДаУдаление блоков с тишиной в начале и конце : НетПри вычислениях CRC использовались нулевые сэмплы : ДаИнтерфейс : Встроенный Win32-интерфейс для Win NT/2000

Выходной формат : Пользовательский кодировщикВыбранный битрейт : 1024 kBit/sКачество : ВысокийДобавление ID3-тега : НетУтилита сжатия : C:\Program Files (x86)\Exact Audio Copy\FLAC\FLAC.EXEДополнительные параметры : -6 -V -T "ARTIST=%artist%" -T "TITLE=%title%" -T "ALBUM=%albumtitle%" -T "DATE=%year%" -T "TRACKNUMBER=%tracknr%" -T "GENRE=%genre%" -T "COMMENT=%comment%" -T "BAND=%albuminterpret%" -T "ALBUMARTIST=%albuminterpret%" -T "COMPOSER=%composer%" %haslyrics%--tag-from-file=LYRICS="%lyricsfile%"%haslyrics% -T "DISCNUMBER=%cdnumber%" -T "TOTALDISCS=%totalcds%" -T "TOTALTRACKS=%numtracks%" %hascover%--picture="%coverfile%"%hascover% %source% -o %dest%

TOC извлечённого CD

Трек | Старт | Длительность | Начальный сектор | Конечный сектор --------------------------------------------------------------------- 1 | 0:00.00 | 6:50.40 | 0 | 30789 2 | 6:50.40 | 3:29.00 | 30790 | 46464 3 | 10:19.40 | 4:59.60 | 46465 | 68949 4 | 15:19.25 | 5:58.12 | 68950 | 95811 5 | 21:17.37 | 3:00.68 | 95812 | 109379 6 | 24:18.30 | 4:55.67 | 109380 | 131571 7 | 29:14.22 | 3:15.23 | 131572 | 146219 8 | 32:29.45 | 4:17.17 | 146220 | 165511 9 | 36:46.62 | 3:15.25 | 165512 | 180161

Характеристики диапазона извлечения и сообщения об ошибках

Выбранный диапазон

Имя файла N:\ТОРРЕНТЫ\Jerry Goldsmith - Star Trek The Motion Picture\Jerry Goldsmith - Star Trek- The Motion Picture.wav

Пиковый уровень 97.2 % Скорость извлечения 8.2 X Качество диапазона 100.0 % CRC теста 750CCB7F CRC копии 750CCB7F Копирование... OK

Ошибок не произошло

AccurateRip: сводка

Трек 1 : извлечено точно (доверие 7) [4E6D2634] (AR v2)Трек 2 : извлечено точно (доверие 7) [E9C0CD9A] (AR v2)Трек 3 : извлечено точно (доверие 7) [EB390849] (AR v2)Трек 4 : извлечено точно (доверие 7) [21EA573C] (AR v2)Трек 5 : извлечено точно (доверие 7) [2A0B2056] (AR v2)Трек 6 : извлечено точно (доверие 7) [118260EB] (AR v2)Трек 7 : извлечено точно (доверие 7) [15BCFE3C] (AR v2)Трек 8 : извлечено точно (доверие 7) [C59B5D28] (AR v2)Трек 9 : извлечено точно (доверие 7) [70C4BFA3] (AR v2)

Все треки извлечены точно

Конец отчёта

---- CUETools DB Plugin V2.1.4

[CTDB TOCID: zuZKPZA9uKu3xfi6orf6oyF_aLw-] foundSubmit result: zuZKPZA9uKu3xfi6orf6oyF_aLw- has been confirmedTrack | CTDB Status 1 | (26/26) Accurately ripped 2 | (26/26) Accurately ripped 3 | (26/26) Accurately ripped 4 | (26/26) Accurately ripped 5 | (26/26) Accurately ripped 6 | (26/26) Accurately ripped 7 | (26/26) Accurately ripped 8 | (26/26) Accurately ripped 9 | (26/26) Accurately ripped

==== Контрольная сумма отчёта 6C81B630FF3217B1074BBABB3994868752801F320F316819C08897CE3B509645 ====
REM GENRE SoundtrackREM DATE 1986REM DISCID 6B096209REM COMMENT "ExactAudioCopy v1.0b4"PERFORMER "Jerry Goldsmith"TITLE "Star Trek: The Motion Picture"FILE "Jerry Goldsmith - Star Trek- The Motion Picture.flac" WAVE TRACK 01 AUDIO TITLE "Main Title - Klingon Battle" PERFORMER "Jerry Goldsmith" INDEX 01 00:00:00 TRACK 02 AUDIO TITLE "Leaving Drydock" PERFORMER "Jerry Goldsmith" INDEX 01 06:50:40 TRACK 03 AUDIO TITLE "The Cloud" PERFORMER "Jerry Goldsmith" INDEX 00 10:18:50 INDEX 01 10:19:40 TRACK 04 AUDIO TITLE "The Enterprise" PERFORMER "Jerry Goldsmith" INDEX 00 15:15:67 INDEX 01 15:19:25 TRACK 05 AUDIO TITLE "Ilia's Theme" PERFORMER "Jerry Goldsmith" INDEX 00 21:16:25 INDEX 01 21:17:37 TRACK 06 AUDIO TITLE "Vejur Flyover" PERFORMER "Jerry Goldsmith" INDEX 00 24:16:67 INDEX 01 24:18:30 TRACK 07 AUDIO TITLE "The Meld" PERFORMER "Jerry Goldsmith" INDEX 01 29:14:22 TRACK 08 AUDIO TITLE "Spock Walk" PERFORMER "Jerry Goldsmith" INDEX 00 32:27:67 INDEX 01 32:29:45 TRACK 09 AUDIO TITLE "End Title" PERFORMER "Jerry Goldsmith" INDEX 00 36:45:65 INDEX 01 36:46:62


Трекер:  [ 17-Мар-2015 02:00 ]

  

Скачать .torrent

Размер .torrent файла 18 KB


Размер: 221 MB
Хэш (hash) релиза: 70b86785125d3e3975d2707619025212c050aa99

Еще никто не оставлял запись к записи скачать торрент Звездный путь: Фильм Star Trek: The Motion Picture . Будь первым!

!Обратная связь