Скачать через торрент музыку бесплатно без регистрации torrent

Если у вас наблюдаются проблемы со скриншотами, переходом по ссылками, скачиванием торрентов - проблемы в блокировщике рекламы AdBlock. #хорошегоДня!


Статистика раздачи
Размер:  162 MB   |    Зарегистрирован:  2 года 8 месяцев   |    .torrent скачан:  40 раз   |   
Раздают:  1  
   
Загрузка...
 
Автор Сообщение

Galfimbul

avatar Galfimbul


Hugo Montenegro - The Good, The Bad And The Ugly
Жанр: Easy Listening, Pop
Носитель: CD
Год издания: 1992
Издатель (лейбл): BMG
Номер по каталогу: 66019
Страна исполнителя (группы): USA
Аудиокодек: FLAC (*.flac)
Тип рипа: tracks+.cue
Битрейт аудио: lossless
Продолжительность: 29:11
Источник (релизер): What.cd (calanc)
Наличие сканов в содержимом раздачи: нет

Треклист:
01. Volare (2:51)
02. More (2:16)
03. Do Nothin' 'Till You Hear From Me (2:49)
04. Lara's Theme (2:24)
05. My Love (2:31)
06. Knowing When To Leave (2:34)
07. Theme from ''Valley Of The Dolls'' (2:23)
08. The Good, The Bad And The Ugly (2:48)
09. Lullaby From ''Rosemary's Baby'' (2:30)
10. Love Theme From ''The Godfather'' (3:39)
11. In The Heat Of The Night (2:26)
 
Exact Audio Copy V1.0 beta 4 from 7. December 2014

EAC extraction logfile from 24. March 2015, 13:05

Hugo Montenegro / The Good, the Bad and the Ugly

Used drive : HL-DT-STDVD+-RW GH82N Adapter: 1 ID: 0

Read mode : SecureUtilize accurate stream : YesDefeat audio cache : YesMake use of C2 pointers : No

Read offset correction : 667Overread into Lead-In and Lead-Out : NoFill up missing offset samples with silence : YesDelete leading and trailing silent blocks : NoNull samples used in CRC calculations : YesUsed interface : Native Win32 interface for Win NT & 2000Gap handling : Appended to previous track

Used output format : User Defined EncoderSelected bitrate : 1024 kBit/sQuality : HighAdd ID3 tag : NoCommand line compressor : C:\Program Files (x86)\Exact Audio Copy\Flac\flac.exeAdditional command line options : -8 -V -T "ARTIST=%artist%" -T "TITLE=%title%" -T "ALBUM=%albumtitle%" -T "DATE=%year%" -T "TRACKNUMBER=%tracknr%" -T "GENRE=%genre%" -T "PERFORMER=%albuminterpret%" -T "COMPOSER=%composer%" %haslyrics%--tag-from-file=LYRICS="%lyricsfile%"%haslyrics% -T "ALBUMARTIST=%albumartist%" -T "DISCNUMBER=%cdnumber%" -T "TOTALDISCS=%totalcds%" -T "TOTALTRACKS=%numtracks%" -T "COMMENT=%comment%" %source% -o %dest%

TOC of the extracted CD

Track | Start | Length | Start sector | End sector --------------------------------------------------------- 1 | 0:00.32 | 2:50.48 | 32 | 12829 2 | 2:51.05 | 2:15.52 | 12830 | 23006 3 | 5:06.57 | 2:49.25 | 23007 | 35706 4 | 7:56.07 | 2:24.10 | 35707 | 46516 5 | 10:20.17 | 2:30.65 | 46517 | 57831 6 | 12:51.07 | 2:34.25 | 57832 | 69406 7 | 15:25.32 | 2:23.13 | 69407 | 80144 8 | 17:48.45 | 2:47.50 | 80145 | 92719 9 | 20:36.20 | 2:30.00 | 92720 | 103969 10 | 23:06.20 | 3:38.70 | 103970 | 120389 11 | 26:45.15 | 2:26.35 | 120390 | 131374

Track 1

Filename C:\FLACs\Hugo Montenegro - The Good, the Bad and the Ugly(1992)\01 - Volare.wav

Pre-gap length 0:00:02.42

Peak level 94.6 % Extraction speed 2.1 X Track quality 99.9 % Test CRC 11F5FD76 Copy CRC 11F5FD76 Accurately ripped (confidence 1) [A170BFCE] (AR v1) Copy OK

Track 2

Filename C:\FLACs\Hugo Montenegro - The Good, the Bad and the Ugly(1992)\02 - More.wav

Pre-gap length 0:00:02.66

Peak level 84.4 % Extraction speed 2.5 X Track quality 100.0 % Test CRC 113AD52F Copy CRC 113AD52F Accurately ripped (confidence 1) [DE2B3A52] (AR v1) Copy OK

Track 3

Filename C:\FLACs\Hugo Montenegro - The Good, the Bad and the Ugly(1992)\03 - Do Nothin' 'Till You Hear from Me.wav

Pre-gap length 0:00:02.52

Peak level 53.6 % Extraction speed 2.4 X Track quality 99.9 % Test CRC A4367D70 Copy CRC A4367D70 Accurately ripped (confidence 1) [E9679FE7] (AR v1) Copy OK

Track 4

Filename C:\FLACs\Hugo Montenegro - The Good, the Bad and the Ugly(1992)\04 - Lara's Theme.wav

Pre-gap length 0:00:02.49

Peak level 81.8 % Extraction speed 3.0 X Track quality 100.0 % Test CRC D8FF7864 Copy CRC D8FF7864 Accurately ripped (confidence 1) [58636423] (AR v1) Copy OK

Track 5

Filename C:\FLACs\Hugo Montenegro - The Good, the Bad and the Ugly(1992)\05 - My Love.wav

Pre-gap length 0:00:03.29

Peak level 88.0 % Extraction speed 3.2 X Track quality 100.0 % Test CRC 65B72CF2 Copy CRC 65B72CF2 Accurately ripped (confidence 1) [E1F54B6B] (AR v1) Copy OK

Track 6

Filename C:\FLACs\Hugo Montenegro - The Good, the Bad and the Ugly(1992)\06 - Knowing When to Leave.wav

Pre-gap length 0:00:01.82

Peak level 88.2 % Extraction speed 2.7 X Track quality 99.9 % Test CRC 42127AF8 Copy CRC 42127AF8 Accurately ripped (confidence 1) [2BE86D14] (AR v1) Copy OK

Track 7

Filename C:\FLACs\Hugo Montenegro - The Good, the Bad and the Ugly(1992)\07 - Theme from 'Valley of the Dolls'.wav

Pre-gap length 0:00:02.22

Peak level 80.2 % Extraction speed 3.4 X Track quality 100.0 % Test CRC 5F220807 Copy CRC 5F220807 Accurately ripped (confidence 1) [8719921E] (AR v1) Copy OK

Track 8

Filename C:\FLACs\Hugo Montenegro - The Good, the Bad and the Ugly(1992)\08 - The Good, the Bad and the Ugly.wav

Pre-gap length 0:00:02.62

Peak level 85.6 % Extraction speed 3.0 X Track quality 99.9 % Test CRC D8819D69 Copy CRC D8819D69 Accurately ripped (confidence 1) [8A7EEF65] (AR v1) Copy OK

Track 9

Filename C:\FLACs\Hugo Montenegro - The Good, the Bad and the Ugly(1992)\09 - Lullaby from 'Rosemary's Baby'.wav

Pre-gap length 0:00:02.56

Peak level 76.0 % Extraction speed 3.5 X Track quality 100.0 % Test CRC 5B34227F Copy CRC 5B34227F Accurately ripped (confidence 1) [12E35B65] (AR v1) Copy OK

Track 10

Filename C:\FLACs\Hugo Montenegro - The Good, the Bad and the Ugly(1992)\10 - Love Theme from 'The Godfather'.wav

Pre-gap length 0:00:02.06

Peak level 87.9 % Extraction speed 4.1 X Track quality 100.0 % Test CRC 8A88CB37 Copy CRC 8A88CB37 Accurately ripped (confidence 1) [8AB41E57] (AR v1) Copy OK

Track 11

Filename C:\FLACs\Hugo Montenegro - The Good, the Bad and the Ugly(1992)\11 - In the Heat of the Night.wav

Pre-gap length 0:00:02.09

Peak level 82.9 % Extraction speed 3.3 X Track quality 99.9 % Test CRC EB4A8BAD Copy CRC EB4A8BAD Accurately ripped (confidence 1) [B1A6CD1D] (AR v1) Copy OK

All tracks accurately ripped

No errors occurred

End of status report

---- CUETools DB Plugin V2.1.4

[CTDB TOCID: 3E5MIMYJxe7VdaYi52lqxRLP9Ak-] disk not present in databaseSubmit result: 3E5MIMYJxe7VdaYi52lqxRLP9Ak- has been uploaded

==== Log checksum 4CBF9061F4EF1661504844CB728E66430969FFDC56CBF8FE994BB7B950C4906C ====
REM GENRE ScoreREM DATE 1992REM DISCID 9006D70BREM COMMENT "ExactAudioCopy v1.0b4"PERFORMER "Hugo Montenegro"TITLE "The Good, The Bad And The Ugly"FILE "01. Volare.flac" WAVE TRACK 01 AUDIO TITLE "Volare" PERFORMER "Hugo Montenegro" PREGAP 00:00:32 INDEX 01 00:00:00 TRACK 02 AUDIO TITLE "More" PERFORMER "Hugo Montenegro" INDEX 00 02:47:73FILE "02. More.flac" WAVE INDEX 01 00:00:00 TRACK 03 AUDIO TITLE "Do Nothin' 'Till You Hear From Me" PERFORMER "Hugo Montenegro" INDEX 00 02:13:13FILE "03. Do Nothin' 'Till You Hear From Me.flac" WAVE INDEX 01 00:00:00 TRACK 04 AUDIO TITLE "Lara's Theme" PERFORMER "Hugo Montenegro" INDEX 00 02:46:63FILE "04. Lara's Theme.flac" WAVE INDEX 01 00:00:00 TRACK 05 AUDIO TITLE "My Love" PERFORMER "Hugo Montenegro" INDEX 00 02:20:63FILE "05. My Love.flac" WAVE INDEX 01 00:00:00 TRACK 06 AUDIO TITLE "Knowing When To Leave" PERFORMER "Hugo Montenegro" INDEX 00 02:29:03FILE "06. Knowing When To Leave.flac" WAVE INDEX 01 00:00:00 TRACK 07 AUDIO TITLE "Theme From ''Valley Of The Dolls''" PERFORMER "Hugo Montenegro" INDEX 00 02:32:08FILE "07. Theme From ''Valley Of The Dolls''.flac" WAVE INDEX 01 00:00:00 TRACK 08 AUDIO TITLE "The Good, The Bad And The Ugly" PERFORMER "Hugo Montenegro" INDEX 00 02:20:41FILE "08. The Good, The Bad And The Ugly.flac" WAVE INDEX 01 00:00:00 TRACK 09 AUDIO TITLE "Lullaby From ''Rosemary's Baby''" PERFORMER "Hugo Montenegro" INDEX 00 02:45:08FILE "09. Lullaby From ''Rosemary's Baby''.flac" WAVE INDEX 01 00:00:00 TRACK 10 AUDIO TITLE "Love Theme From ''The Godfather''" PERFORMER "Hugo Montenegro" INDEX 00 02:27:70FILE "10. Love Theme From ''The Godfather''.flac" WAVE INDEX 01 00:00:00 TRACK 11 AUDIO TITLE "In The Heat Of The Night" PERFORMER "Hugo Montenegro" INDEX 00 03:36:63FILE "11. In The Heat Of The Night.flac" WAVE INDEX 01 00:00:00


Трекер:  [ 25-Мар-2015 08:00 ]

  

Скачать .torrent

Размер .torrent файла 4 KB


Размер: 162 MB
Хэш (hash) релиза: f5efce7b2b80931b5659ea6dbd3e1d29da647299

Еще никто не оставлял запись к записи скачать торрент . Будь первым!

!Обратная связь