Скачать через торрент музыку Сыны Анархии Sons Of Anarchy бесплатно без регистрации torrent

Если у вас наблюдаются проблемы со скриншотами, переходом по ссылками, скачиванием торрентов - проблемы в блокировщике рекламы AdBlock. #хорошегоДня!


Статистика раздачи
Размер:  1.37 GB   |    Зарегистрирован:  2 года 8 месяцев   |    .torrent скачан:  58 раз   |   
Раздают:  1  
   
Загрузка...
 
Автор Сообщение

Galfimbul

avatar Galfimbul


Songs of Anarchy: Volume 1 - 4 Страна (Origin): United States of America || Жанр: Alternative, Folk, Rock, Blues, Soundtrack, Covers || Производитель дисков (Labels): Columbia
Страна производителя дисков (Country): USA || Годы выпуска дисков (Released in): 2011-2015
Аудио кодек (Audio codec used): FLAC || Тип рипа (Type of rip used): tracks+.cue, AccurateRip
Источник рипов: Собственная коллекция || Общая продолжительность звучания (Length): 3:37:15
Наличие сканов в содержимом раздачи: да

<div class="q-wrap">
<div class="q-head"><span><b>Цитата:</b></span></div>
<div class="q">"Сыны анархии", или "Дети анархии" (англ. Sons of Anarchy) — американский телевизионный сериал в жанре криминальной драмы. Сериал транслировался на FX с 3 сентября 2008 по 9 декабря 2014 года. Является одним из самых успешных сериалов канала FX. Сериал завершился на седьмом сезоне.</div>
</div>

<div class="q-wrap">
<div class="q-head"><span><b>Amazon.com</b> писал(а):</span></div>
<div class="q">Songs of Anarchy: Music from Sons of Anarchy Seasons 1-4 , features a collection of fifteen new recordings, specifically for the show, of classic tunes such as “What A Wonderful World”, “Forever Young” and “John The Revelator”. The collection kicks off with the Emmy nominated and ASCAP award winning series theme song “This Life” written by singer-songwriter Curtis Stigers, Velvet Revolver guitarist Dave Kushner, producer Bob Thiele and show creator Kurt Sutter, performed by Curtis Stigers & The Forest Rangers. Golden Globe® Award winning actress/singer Katey Sagal performs four tracks on the soundtrack including a standout performance of “Son Of A Preacher Man” with The Forest Rangers. Other notable tracks include “Someday Never Comes”, “Hey Hey, My My” and the never before heard stunning recording of “House of the Rising Sun.”
01. THIS LIFE - Curtis Stigers & The Forest Rangers (2:21)
02. SON OF A PREACHER MAN - Katey Sagal & The Forest Rangers (3:12)
03. FOREVER YOUNG - Audra Mae & The Forest Rangers (3:12)
04. JOHN THE REVELATOR - Curtis Stigers & The Forest Rangers (5:35)
05. FORTUNATE SON - Lyle Workman & Bob Thiele, Jr. (3:29)
06. SLIP KID - Anvil featuring Franky Perez (3:50)
07. GIRL FROM THE NORTH COUNTRY - The Lions (4:11)
08. SOMEDAY NEVER COMES - Billy Valentine & The Forest Rangers (4:04)
09. GIMME SHELTER - Paul Brady & The Forest Rangers (4:52)
10. BIRD ON A WIRE - Katey Sagal & The Forest Rangers (5:02)
11. HEY HEY, MY MY - Battleme (2:49)
12. WHAT A WONDERFUL WORLD - Alison Mosshart & The Forest Rangers (2:31)
13. LOS TIEMPOS VAN CAMBIANDO (THE TIMES THEY ARE A-CHANGIN') - Franky Perez & Los Guardianes Del Bosque (4:58)
14. STRANGE FRUIT - Katey Sagal & The Forest Rangers featuring Blake Mills (4:04)
15. HOUSE OF THE RISING SUN (SEASON 4 FINALE VERSION) - The White Buffalo with The Forest Rangers (5:22)

Total Length: 59:36
Release Date: November 29, 2011
Label: Columbia
Soundtrack Album Producers: Kurt Sutter and Bob Thiele
01 - Theme Song.
02 - 1x02 Seeds - Closing montage.
03 - 1x12 The Sleep of Babies - Opening/Closing (acapella) montage.
04 - 1x13 The Revelator - Closing montage.
05 - 1x09 Hell Followed - Closing montage.
06 - 2x01 Albification - Opening montage.
07 - 2x01 Albification - Closing montage.
08 - 2x12 The Culling - Opening montage/closing scene.
09 - 2x13 Na Trioblóidí - Closing montage.
10 - 3x04 Home - Closing montage.
11 - 3x13 NS - Closing montage.
12 - 4x01 Out - Closing montage.
13 - 4x04 Una Venta - Opening montage.
14 - 4x07 Fruit for the Crows - Closing montage.
15 - 4x14 To Be, Act 2 - Closing montage.
</div>
</div>
Exact Audio Copy V1.0 beta 3 from 29. August 2011

EAC extraction logfile from 24. March 2015, 16:56

Various Artists / Songs of Anarchy:Music From Sons of Anarchy Seasons 1-4 (US, 88691 91432 2)

Used drive : Optiarc BD RW BD-5300S Adapter: 3 ID: 1

Read mode : Secure
Utilize accurate stream : Yes
Defeat audio cache : Yes
Make use of C2 pointers : No

Read offset correction : 6
Overread into Lead-In and Lead-Out : No
Fill up missing offset samples with silence : Yes
Delete leading and trailing silent blocks : No
Null samples used in CRC calculations : Yes
Used interface : Native Win32 interface for Win NT & 2000
Gap handling : Appended to previous track

Used output format : User Defined Encoder
Selected bitrate : 128 kBit/s
Quality : High
Add ID3 tag : Yes
Command line compressor : C:\Program Files (x86)\Exact Audio Copy\Flac\flac.exe
Additional command line options : -V -8 -T "Genre=%genre%" -T "Artist=%artist%" -T "Title=%title%" -T "Album=%albumtitle%" -T "Date=%year%" -T "Tracknumber=%tracknr%" -T "Comment=%comment%" %source%

TOC of the extracted CD

Track | Start | Length | Start sector | End sector
---------------------------------------------------------
1 | 0:00.00 | 2:21.01 | 0 | 10575
2 | 2:21.01 | 3:12.22 | 10576 | 24997
3 | 5:33.23 | 3:12.73 | 24998 | 39470
4 | 8:46.21 | 5:35.09 | 39471 | 64604
5 | 14:21.30 | 3:29.06 | 64605 | 80285
6 | 17:50.36 | 3:50.07 | 80286 | 97542
7 | 21:40.43 | 4:11.48 | 97543 | 116415
8 | 25:52.16 | 4:04.16 | 116416 | 134731
9 | 29:56.32 | 4:52.08 | 134732 | 156639
10 | 34:48.40 | 5:02.40 | 156640 | 179329
11 | 39:51.05 | 2:49.37 | 179330 | 192041
12 | 42:40.42 | 2:31.04 | 192042 | 203370
13 | 45:11.46 | 4:58.12 | 203371 | 225732
14 | 50:09.58 | 4:04.55 | 225733 | 244087
15 | 54:14.38 | 5:22.00 | 244088 | 268237

Track 1

Filename D:\01 Curtis Stigers & The Forest Rangers - This Life.wav

Pre-gap length 0:00:02.00

Peak level 100.0 %
Extraction speed 2.0 X
Track quality 100.0 %
Test CRC 09C379C7
Copy CRC 09C379C7
Accurately ripped (confidence 40) [4A690C4C] (AR v2)
Copy OK

Track 2

Filename D:\02 Katey Sagal & The Forest Rangers - Son Of A Preacher Man.wav

Peak level 100.0 %
Extraction speed 2.3 X
Track quality 100.0 %
Test CRC 99B0AC7D
Copy CRC 99B0AC7D
Accurately ripped (confidence 41) [E23566A7] (AR v2)
Copy OK

Track 3

Filename D:\03 Audra Mae & The Forest Rangers - Forever Young.wav

Peak level 100.0 %
Extraction speed 2.4 X
Track quality 100.0 %
Test CRC B42D48DA
Copy CRC B42D48DA
Accurately ripped (confidence 41) [B84F7984] (AR v2)
Copy OK

Track 4

Filename D:\04 Curtis Stigers & The Forest Rangers - John The Revelator.wav

Peak level 94.4 %
Extraction speed 2.8 X
Track quality 100.0 %
Test CRC 6C6B13E3
Copy CRC 6C6B13E3
Accurately ripped (confidence 41) [2B1CAAD2] (AR v2)
Copy OK

Track 5

Filename D:\05 Lyle Workman & Bob Thiele, Jr. - Fortunate Son.wav

Peak level 100.0 %
Extraction speed 2.9 X
Track quality 100.0 %
Test CRC 66FEECCF
Copy CRC 66FEECCF
Accurately ripped (confidence 41) [8822D58C] (AR v2)
Copy OK

Track 6

Filename D:\06 Anvil featuring Franky Perez - Slip Kid.wav

Peak level 100.0 %
Extraction speed 2.2 X
Track quality 99.9 %
Test CRC A209F687
Copy CRC A209F687
Accurately ripped (confidence 41) [129D71B0] (AR v2)
Copy OK

Track 7

Filename D:\07 The Lions - Girl From The North Country.wav

Peak level 100.0 %
Extraction speed 2.4 X
Track quality 99.9 %
Test CRC 865BCCE4
Copy CRC 865BCCE4
Accurately ripped (confidence 41) [1EF62799] (AR v2)
Copy OK

Track 8

Filename D:\08 Billy Valentine & The Forest Rangers - Someday Never Comes.wav

Peak level 100.0 %
Extraction speed 3.4 X
Track quality 100.0 %
Test CRC 47745F46
Copy CRC 47745F46
Accurately ripped (confidence 41) [5EF02B34] (AR v2)
Copy OK

Track 9

Filename D:\09 Paul Brady & The Forest Rangers - Gimme Shelter.wav

Peak level 100.0 %
Extraction speed 3.6 X
Track quality 100.0 %
Test CRC 1889987D
Copy CRC 1889987D
Accurately ripped (confidence 41) [C0FC7E28] (AR v2)
Copy OK

Track 10

Filename D:\10 Katey Sagal & The Forest Rangers - Bird On A Wire.wav

Peak level 100.0 %
Extraction speed 3.8 X
Track quality 100.0 %
Test CRC 13239B91
Copy CRC 13239B91
Accurately ripped (confidence 41) [A671B034] (AR v2)
Copy OK

Track 11

Filename D:\11 Battleme - Hey Hey, My My.wav

Peak level 100.0 %
Extraction speed 3.6 X
Track quality 100.0 %
Test CRC CFDB52E5
Copy CRC CFDB52E5
Accurately ripped (confidence 41) [736E83B3] (AR v2)
Copy OK

Track 12

Filename D:\12 Alison Mosshart & The Forest Rangers - What A Wonderful World.wav

Peak level 100.0 %
Extraction speed 2.4 X
Track quality 99.9 %
Test CRC 5E83C3CF
Copy CRC 5E83C3CF
Accurately ripped (confidence 40) [77DB71AA] (AR v2)
Copy OK

Track 13

Filename D:\13 Franky Perez & Los Guardianes Del Bosque - Los Tiempos Van Cambiando (The Times They Are A-Changin').wav

Peak level 100.0 %
Extraction speed 3.2 X
Track quality 99.9 %
Test CRC 349A1F5E
Copy CRC 349A1F5E
Accurately ripped (confidence 41) [BF8A57FC] (AR v2)
Copy OK

Track 14

Filename D:\14 Katey Sagal & The Forest Rangers featuring Blake Mills - Strange Fruit.wav

Peak level 100.0 %
Extraction speed 4.2 X
Track quality 100.0 %
Test CRC 4E1B806C
Copy CRC 4E1B806C
Accurately ripped (confidence 40) [526F7819] (AR v2)
Copy OK

Track 15

Filename D:\15 The White Buffalo with The Forest Rangers - House Of The Rising Sun (Season 4 Finale Version).wav

Peak level 100.0 %
Extraction speed 4.4 X
Track quality 100.0 %
Test CRC 04A3FE64
Copy CRC 04A3FE64
Accurately ripped (confidence 40) [F521349E] (AR v2)
Copy OK

All tracks accurately ripped

No errors occurred

End of status report

==== Log checksum 4920E168B1D11DCD89AF9BB4142B3B9CF02EF01B031ACD0266160C1A45BAF380 ====
REM GENRE Soundtrack
REM DATE 2011
REM DISCID BA0DF80F
REM COMMENT "ExactAudioCopy v1.0b3"
PERFORMER "Various Artists"
TITLE "Songs of Anarchy:Music From Sons of Anarchy Seasons 1-4 (US, 88691 91432 2)"
FILE "01 Curtis Stigers & The Forest Rangers - This Life.wav" WAVE
TRACK 01 AUDIO
TITLE "This Life"
PERFORMER "Curtis Stigers & The Forest Rangers"
ISRC USQX91101562
INDEX 01 00:00:00
FILE "02 Katey Sagal & The Forest Rangers - Son Of A Preacher Man.wav" WAVE
TRACK 02 AUDIO
TITLE "Son Of A Preacher Man"
PERFORMER "Katey Sagal & The Forest Rangers"
ISRC USQX91101563
INDEX 01 00:00:00
FILE "03 Audra Mae & The Forest Rangers - Forever Young.wav" WAVE
TRACK 03 AUDIO
TITLE "Forever Young"
PERFORMER "Audra Mae & The Forest Rangers"
ISRC USQX91101564
INDEX 01 00:00:00
FILE "04 Curtis Stigers & The Forest Rangers - John The Revelator.wav" WAVE
TRACK 04 AUDIO
TITLE "John The Revelator"
PERFORMER "Curtis Stigers & The Forest Rangers"
ISRC USQX91101565
INDEX 01 00:00:00
FILE "05 Lyle Workman & Bob Thiele, Jr. - Fortunate Son.wav" WAVE
TRACK 05 AUDIO
TITLE "Fortunate Son"
PERFORMER "Lyle Workman & Bob Thiele, Jr."
ISRC USQX91101566
INDEX 01 00:00:00
FILE "06 Anvil featuring Franky Perez - Slip Kid.wav" WAVE
TRACK 06 AUDIO
TITLE "Slip Kid"
PERFORMER "Anvil featuring Franky Perez"
ISRC USQX91101567
INDEX 01 00:00:00
FILE "07 The Lions - Girl From The North Country.wav" WAVE
TRACK 07 AUDIO
TITLE "Girl From The North Country"
PERFORMER "The Lions"
ISRC USQX91101568
INDEX 01 00:00:00
FILE "08 Billy Valentine & The Forest Rangers - Someday Never Comes.wav" WAVE
TRACK 08 AUDIO
TITLE "Someday Never Comes"
PERFORMER "Billy Valentine & The Forest Rangers"
ISRC USQX91101569
INDEX 01 00:00:00
FILE "09 Paul Brady & The Forest Rangers - Gimme Shelter.wav" WAVE
TRACK 09 AUDIO
TITLE "Gimme Shelter"
PERFORMER "Paul Brady & The Forest Rangers"
ISRC USQX91101570
INDEX 01 00:00:00
FILE "10 Katey Sagal & The Forest Rangers - Bird On A Wire.wav" WAVE
TRACK 10 AUDIO
TITLE "Bird On A Wire"
PERFORMER "Katey Sagal & The Forest Rangers"
ISRC USQX91101571
INDEX 01 00:00:00
FILE "11 Battleme - Hey Hey, My My.wav" WAVE
TRACK 11 AUDIO
TITLE "Hey Hey, My My"
PERFORMER "Battleme"
ISRC USQX91101572
INDEX 01 00:00:00
FILE "12 Alison Mosshart & The Forest Rangers - What A Wonderful World.wav" WAVE
TRACK 12 AUDIO
TITLE "What A Wonderful World"
PERFORMER "Alison Mosshart & The Forest Rangers"
ISRC USQX91101573
INDEX 01 00:00:00
FILE "13 Franky Perez & Los Guardianes Del Bosque - Los Tiempos Van Cambiando (The Times They Are A-Changin').wav" WAVE
TRACK 13 AUDIO
TITLE "Los Tiempos Van Cambiando (The Times They Are A-Changin')"
PERFORMER "Franky Perez & Los Guardianes Del Bosque"
ISRC USQX91101574
INDEX 01 00:00:00
FILE "14 Katey Sagal & The Forest Rangers featuring Blake Mills - Strange Fruit.wav" WAVE
TRACK 14 AUDIO
TITLE "Strange Fruit"
PERFORMER "Katey Sagal & The Forest Rangers featuring Blake Mills"
ISRC USQX91101575
INDEX 01 00:00:00
FILE "15 The White Buffalo with The Forest Rangers - House Of The Rising Sun (Season 4 Finale Version).wav" WAVE
TRACK 15 AUDIO
TITLE "House Of The Rising Sun (Season 4 Finale Version)"
PERFORMER "The White Buffalo with The Forest Rangers"
ISRC USQX91101731
INDEX 01 00:00:00


<div class="q-wrap">
<div class="q-head"><span><b>Amazon.com</b> писал(а):</span></div>
<div class="q">Songs of Anarchy: Vol. 2 is the second installment of music to FX's highest rated series, Sons of Anarchy. The CD features a collection of thirteen songs, including new renditions of classic tunes such as Higher Ground, To Sir with Love, The Unclouded Day and Travelin' Band . The collection kicks off with a never before heard recording of Sympathy for the Devil, by iconic rock band Jane's Addiction.

"When Jane's Addiction said they were into the idea of doing Sympathy for the Devil for the show, we were completely blown away. This was made all the more sweet because theirs was the first and only door we knocked on. Jane's Addiction is one of the few post 60 s/70's, iconic bands that resonates with our show s mythology. They have typified rebellion from their very beginnings. It seemed a natural fit between a band and a song with so many layers of meaning to the Sons of Anarchy narrative. I can proudly say that the end product speaks for itself. Working with them, as a band and as individuals, was an incredibly satisfying experience." - Bob Thiele (SOA music composer).

Jane's Addiction guitarist Dave Navarro also guest stars in the last two episodes of the season, as a member of the Byz Lats gang with close ties to Nero (Jimmy Smits).

Golden Globe® Award winning actress/singer Katey Sagal returns with a beautiful rendition of "To Sir with Love," a collaboration track with The Forest Rangers. Other notable tracks include "The Lost Boy", "No Milk Today", and the stunning recording of "Time" which features Battleme & The Forest Rangers.

The Forest Rangers serve as the Sons Of Anarchy house band, which includes the show's music composer Bob Thiele, Greg Leisz (guitar/banjo), John Philip Shenale (keyboards), Lyle Workman (guitar), Dave Way (recording Engineer and Sergeant at Arms), Davey Faragher (bass), Brian Macleod (drums) and Velvet Revolver guitarist Dave Kushner.
01. SYMPATHY FOR THE DEVIL - Jane's Addiction (5:26)
02. THE LOST BOY - Greg Holden (3:26)
03. THE PASSENGER* - Alison Mosshart & The Forest Rangers (4:41)
04. HE GOT AWAY - Noah Gundersen & The Forest Rangers (3:30)
05. TO SIR WITH LOVE - Katey Sagal & The Forest Rangers (3:21)
06. HIGHER GROUND - Franky Perez & The Forest Rangers (3:54)
07. LIGHTS - Battleme & The Forest Rangers (3:45)
08. THE UNCLOUDED DAY - Audra Mae & The Forest Rangers (4:11)
09. COAL WAR - Joshua James (5:13)
10. TIME - Battleme & The Forest Rangers (2:36)
11. TRAVELIN' BAND - Curtis Stigers & The Forest Rangers (2:17)
12. FAMILY - Noah Gundersen (3:33)
13. NO MILK TODAY - Joshua James & The Forest Rangers (4:23)
* bonus track

Total Length: 50:22
Release Date: November 19, 2012
Label: Columbia
Soundtrack Album Producers: Kurt Sutter and Bob Thiele
01 - 5x13 J'ai Obtenu Cette - Closing montage.
02 - 5x04 Stolen Huffy - Closing montage.
03 - not used
04 - 5x01 Sovereign - Closing montage.
05 - 5x13 J'ai Obtenu Cette - Opening montage.
06 - 5x01 Sovereign - Opening montage.
07 - 5x09 Andare Pescare - Closing montage.
08 - 5x05 Orca Shrugged - Closing montage.
09 - 4x01 Out - Opening montage.
10 - 4x10 Hands - Closing montage.
11 - 3x07 Widening Gyre - Closing montage.
12 - 4x06 With an X - Closing montage.
13 - 3x01 SO - Opening montage.
</div>
</div>
Exact Audio Copy V1.0 beta 3 from 29. August 2011

EAC extraction logfile from 24. March 2015, 17:37

Various Artists / Songs of Anarchy:Vol. 2 (US, 88765 42143 2)

Used drive : Optiarc BD RW BD-5300S Adapter: 3 ID: 1

Read mode : Secure
Utilize accurate stream : Yes
Defeat audio cache : Yes
Make use of C2 pointers : No

Read offset correction : 6
Overread into Lead-In and Lead-Out : No
Fill up missing offset samples with silence : Yes
Delete leading and trailing silent blocks : No
Null samples used in CRC calculations : Yes
Used interface : Native Win32 interface for Win NT & 2000
Gap handling : Appended to previous track

Used output format : User Defined Encoder
Selected bitrate : 128 kBit/s
Quality : High
Add ID3 tag : Yes
Command line compressor : C:\Program Files (x86)\Exact Audio Copy\Flac\flac.exe
Additional command line options : -V -8 -T "Genre=%genre%" -T "Artist=%artist%" -T "Title=%title%" -T "Album=%albumtitle%" -T "Date=%year%" -T "Tracknumber=%tracknr%" -T "Comment=%comment%" %source%

TOC of the extracted CD

Track | Start | Length | Start sector | End sector
---------------------------------------------------------
1 | 0:00.00 | 5:26.39 | 0 | 24488
2 | 5:26.39 | 3:26.24 | 24489 | 39962
3 | 8:52.63 | 4:41.64 | 39963 | 61101
4 | 13:34.52 | 3:30.13 | 61102 | 76864
5 | 17:04.65 | 3:21.25 | 76865 | 91964
6 | 20:26.15 | 3:54.54 | 91965 | 109568
7 | 24:20.69 | 3:45.24 | 109569 | 126467
8 | 28:06.18 | 4:11.03 | 126468 | 145295
9 | 32:17.21 | 5:13.06 | 145296 | 168776
10 | 37:30.27 | 2:36.73 | 168777 | 180549
11 | 40:07.25 | 2:17.65 | 180550 | 190889
12 | 42:25.15 | 3:33.50 | 190890 | 206914
13 | 45:58.65 | 4:23.57 | 206915 | 226696

Track 1

Filename D:\01 Jane's Addiction - Sympathy For The Devil.wav

Pre-gap length 0:00:02.00

Peak level 100.0 %
Extraction speed 2.3 X
Track quality 100.0 %
Test CRC AA2B690F
Copy CRC AA2B690F
Accurately ripped (confidence 23) [61CF875E] (AR v2)
Copy OK

Track 2

Filename D:\02 Greg Holden - The Lost Boy.wav

Peak level 98.8 %
Extraction speed 2.4 X
Track quality 100.0 %
Test CRC AC90D2C7
Copy CRC AC90D2C7
Accurately ripped (confidence 24) [DD84B53F] (AR v2)
Copy OK

Track 3

Filename D:\03 Alison Mosshart & The Forest Rangers - The Passenger (Bonus Track).wav

Peak level 98.8 %
Extraction speed 2.1 X
Track quality 99.9 %
Test CRC 9316B870
Copy CRC 9316B870
Accurately ripped (confidence 24) [CBE5E89A] (AR v2)
Copy OK

Track 4

Filename D:\04 Noah Gundersen & The Forest Rangers - He Got Away.wav

Peak level 100.0 %
Extraction speed 2.0 X
Track quality 99.9 %
Test CRC 9C0FB6F2
Copy CRC 9C0FB6F2
Accurately ripped (confidence 24) [DA4FBB6C] (AR v2)
Copy OK

Track 5

Filename D:\05 Katey Sagal & The Forest Rangers - To Sir With Love.wav

Peak level 98.8 %
Extraction speed 2.9 X
Track quality 100.0 %
Test CRC ECC944E0
Copy CRC ECC944E0
Accurately ripped (confidence 24) [0575E9C4] (AR v2)
Copy OK

Track 6

Filename D:\06 Franky Perez & The Forest Rangers - Higher Ground.wav

Peak level 100.0 %
Extraction speed 2.2 X
Track quality 99.9 %
Test CRC 99AA63EA
Copy CRC 99AA63EA
Accurately ripped (confidence 24) [40AD9BD4] (AR v2)
Copy OK

Track 7

Filename D:\07 Battleme & The Forest Rangers - Lights.wav

Peak level 98.8 %
Extraction speed 3.3 X
Track quality 100.0 %
Test CRC B4C801E6
Copy CRC B4C801E6
Accurately ripped (confidence 24) [26ACF976] (AR v2)
Copy OK

Track 8

Filename D:\08 Audra Mae & The Forest Rangers - The Unclouded Day.wav

Peak level 100.0 %
Extraction speed 3.5 X
Track quality 100.0 %
Test CRC 1EF7BDBD
Copy CRC 1EF7BDBD
Accurately ripped (confidence 24) [F9F1440C] (AR v2)
Copy OK

Track 9

Filename D:\09 Joshua James - Coal War.wav

Peak level 98.8 %
Extraction speed 2.9 X
Track quality 99.9 %
Test CRC 275F603E
Copy CRC 275F603E
Accurately ripped (confidence 24) [153BE102] (AR v2)
Copy OK

Track 10

Filename D:\10 Battleme & The Forest Rangers - Time.wav

Peak level 98.8 %
Extraction speed 3.4 X
Track quality 100.0 %
Test CRC 9C5F9578
Copy CRC 9C5F9578
Accurately ripped (confidence 24) [D81F65B0] (AR v2)
Copy OK

Track 11

Filename D:\11 Curtis Stigers & The Forest Rangers - Travelin' Band.wav

Peak level 98.8 %
Extraction speed 3.5 X
Track quality 100.0 %
Test CRC 11C35678
Copy CRC 11C35678
Accurately ripped (confidence 24) [C04FFBB6] (AR v2)
Copy OK

Track 12

Filename D:\12 Noah Gundersen - Family.wav

Peak level 98.8 %
Extraction speed 3.8 X
Track quality 100.0 %
Test CRC 6F9139F5
Copy CRC 6F9139F5
Accurately ripped (confidence 24) [25FD7B6A] (AR v2)
Copy OK

Track 13

Filename D:\13 Joshua James & The Forest Rangers - No Milk Today.wav

Peak level 98.8 %
Extraction speed 4.0 X
Track quality 100.0 %
Test CRC 5763EC96
Copy CRC 5763EC96
Accurately ripped (confidence 23) [53611900] (AR v2)
Copy OK

All tracks accurately ripped

No errors occurred

End of status report

==== Log checksum 4FF6C05010E1A4D4D660E68B9F663105279212D50AB272979008B84F8DEF37C8 ====
REM GENRE Soundtrack
REM DATE 2012
REM DISCID B50BCE0D
REM COMMENT "ExactAudioCopy v1.0b3"
CATALOG 0887654214324
PERFORMER "Various Artists"
TITLE "Songs of Anarchy:Vol. 2 (US, 88765 42143 2)"
FILE "01 Jane's Addiction - Sympathy For The Devil.wav" WAVE
TRACK 01 AUDIO
TITLE "Sympathy For The Devil"
PERFORMER "Jane's Addiction"
ISRC USQX91201995
INDEX 01 00:00:00
FILE "02 Greg Holden - The Lost Boy.wav" WAVE
TRACK 02 AUDIO
TITLE "The Lost Boy"
PERFORMER "Greg Holden"
ISRC USQX91201988
INDEX 01 00:00:00
FILE "03 Alison Mosshart & The Forest Rangers - The Passenger (Bonus Track).wav" WAVE
TRACK 03 AUDIO
TITLE "The Passenger (Bonus Track)"
PERFORMER "Alison Mosshart & The Forest Rangers"
ISRC USQX91201987
INDEX 01 00:00:00
FILE "04 Noah Gundersen & The Forest Rangers - He Got Away.wav" WAVE
TRACK 04 AUDIO
TITLE "He Got Away"
PERFORMER "Noah Gundersen & The Forest Rangers"
ISRC USQX91201552
INDEX 01 00:00:00
FILE "05 Katey Sagal & The Forest Rangers - To Sir With Love.wav" WAVE
TRACK 05 AUDIO
TITLE "To Sir With Love"
PERFORMER "Katey Sagal & The Forest Rangers"
ISRC USQX91201990
INDEX 01 00:00:00
FILE "06 Franky Perez & The Forest Rangers - Higher Ground.wav" WAVE
TRACK 06 AUDIO
TITLE "Higher Ground"
PERFORMER "Franky Perez & The Forest Rangers"
ISRC USQX91201551
INDEX 01 00:00:00
FILE "07 Battleme & The Forest Rangers - Lights.wav" WAVE
TRACK 07 AUDIO
TITLE "Lights"
PERFORMER "Battleme & The Forest Rangers"
ISRC USQX91201989
INDEX 01 00:00:00
FILE "08 Audra Mae & The Forest Rangers - The Unclouded Day.wav" WAVE
TRACK 08 AUDIO
TITLE "The Unclouded Day"
PERFORMER "Audra Mae & The Forest Rangers"
ISRC USQX91201737
INDEX 01 00:00:00
FILE "09 Joshua James - Coal War.wav" WAVE
TRACK 09 AUDIO
TITLE "Coal War"
PERFORMER "Joshua James"
ISRC USQX91201986
INDEX 01 00:00:00
FILE "10 Battleme & The Forest Rangers - Time.wav" WAVE
TRACK 10 AUDIO
TITLE "Time"
PERFORMER "Battleme & The Forest Rangers"
ISRC USQX91201993
INDEX 01 00:00:00
FILE "11 Curtis Stigers & The Forest Rangers - Travelin' Band.wav" WAVE
TRACK 11 AUDIO
TITLE "Travelin' Band"
PERFORMER "Curtis Stigers & The Forest Rangers"
ISRC USQX91201991
INDEX 01 00:00:00
FILE "12 Noah Gundersen - Family.wav" WAVE
TRACK 12 AUDIO
TITLE "Family"
PERFORMER "Noah Gundersen"
ISRC USQX91201994
INDEX 01 00:00:00
FILE "13 Joshua James & The Forest Rangers - No Milk Today.wav" WAVE
TRACK 13 AUDIO
TITLE "No Milk Today"
PERFORMER "Joshua James & The Forest Rangers"
ISRC USQX91201992
INDEX 01 00:00:00


<div class="q-wrap">
<div class="q-head"><span><b>Amazon.com</b> писал(а):</span></div>
<div class="q">Songs of Anarchy Volume 3 kicks off with Chris Goss & the Forest Rangers blues-folk take on "Sitting on Top of the World," which was hand-picked by series creator Kurt Sutter. Other stand-out recordings include Leonard Cohen s gritty "Come Healing," Noah Gunderson and the Forest Rangers "As Tears Go By," and singer songwriter Joshua James' heartfelt "Crash This Train." Golden Globe® Award winning actress/singer Katey Sagal is featured on the beautiful cover of "For A Dancer" as well as "Everyday People," which music composer Bob Thiele remarks was the most challenging song to record in the course of working on the show.

The Forest Rangers serve as the Sons Of Anarchy house band, which includes the show's music composer Bob Thiele, Greg Leisz (guitar/banjo), John Philip Shenale (keyboards), Lyle Workman (guitar), Dave Way (recording Engineer and Sergeant at Arms), Davey Faragher (bass), Brian Macleod (drums) and Velvet Revolver guitarist Dave Kushner.

Sons of Anarchy was created by Kurt Sutter, who also serves as Executive Producer along with John Linson, Art Linson and Paris Barclay. The series is produced by FX Productions and Fox 21. Starring Charlie Hunnam, Ron Perlman and Katey Sagal, Sons of Anarchy is having its best season yet from a ratings standpoint. Currently in season six, the series continues to be FX's highest rated series.
01. SITTING ON TOP OF THE WORLD - Chris Goss & The Forest Rangers (3:28)
02. RUNNING BLUES - Jennifer O'Connor & The Forest Rangers (2:45)
03. COME HEALING - Leonard Cohen (2:52)
04. (SITTIN' ON) THE DOCK OF THE BAY - Billy Valentine & The Forest Rangers (3:21)
05. LOVE IS MY RELIGION - Franky Perez & The Forest Rangers (3:15)
06. AS TEARS GO BY - Noah Gundersen & The Forest Rangers (3:50)
07. I SEE THROUGH YOU (FREE YOUR MIND) - Battleme & The Forest Rangers (3:23)
08. DAY IS GONE - Noah Gundersen & The Forest Rangers (4:24)
09. EVERYDAY PEOPLE - The Forest Rangers feat. Audra May, Billy Valentine, Katey Sagal, Curtis Stigers & Franky Perez (5:29)
10. FOR A DANCER - Katey Sagal & The Forest Rangers (4:40)
11. SLIP KID - The Forest Rangers feat. Franky Perez (3:50)
12. LULLABY FOR A SOLDIER (ARMS OF THE ANGELS) - Maggie Siff & The Forest Rangers (3:07)
13. CRASH THIS TRAIN - Joshua James (4:00)

Total Length: 48:29
Release Date: December 3, 2013
Label: Columbia
Soundtrack Album Producers: Kurt Sutter and Bob Thiele
01 - 6x04 Wolfsangel - Closing montage.
02 - 6x03 Poenitentia - Torrick makes "it all matter".
03 - 6x01 Straw - Closing montage.
04 - 6x01 Straw - Clay is transfered to genpop, he decides to take Torrick’s deal.
05 - 6x07 Sweet and Vaded - Opening montage.
06 - 6x02 One One Six - Closing montage.
07 - 6x11 Aon Rud Persanta - Everyone gets ready for the takedown.
08 - 6x13 A Mother's Work - Closing montage.
09 - 6x03 Poenitentia - Closing montage.
10 - 6x10 Huang Wu - Opening montage.
11 - not used
12 - 6x09 John 8:32 - Closing montage.
13 - 6x07 Sweet and Vaded - Closing montage.
</div>
</div>
Exact Audio Copy V1.0 beta 3 from 29. August 2011

EAC extraction logfile from 24. March 2015, 18:15

Various Artists / Songs of Anarchy:Vol. 3 (US, 88843 01434 2)

Used drive : Optiarc BD RW BD-5300S Adapter: 3 ID: 1

Read mode : Secure
Utilize accurate stream : Yes
Defeat audio cache : Yes
Make use of C2 pointers : No

Read offset correction : 6
Overread into Lead-In and Lead-Out : No
Fill up missing offset samples with silence : Yes
Delete leading and trailing silent blocks : No
Null samples used in CRC calculations : Yes
Used interface : Native Win32 interface for Win NT & 2000
Gap handling : Appended to previous track

Used output format : User Defined Encoder
Selected bitrate : 128 kBit/s
Quality : High
Add ID3 tag : Yes
Command line compressor : C:\Program Files (x86)\Exact Audio Copy\Flac\flac.exe
Additional command line options : -V -8 -T "Genre=%genre%" -T "Artist=%artist%" -T "Title=%title%" -T "Album=%albumtitle%" -T "Date=%year%" -T "Tracknumber=%tracknr%" -T "Comment=%comment%" %source%

TOC of the extracted CD

Track | Start | Length | Start sector | End sector
---------------------------------------------------------
1 | 0:00.00 | 3:28.57 | 0 | 15656
2 | 3:28.57 | 2:45.38 | 15657 | 28069
3 | 6:14.20 | 2:52.02 | 28070 | 40971
4 | 9:06.22 | 3:21.27 | 40972 | 56073
5 | 12:27.49 | 3:15.11 | 56074 | 70709
6 | 15:42.60 | 3:50.19 | 70710 | 87978
7 | 19:33.04 | 3:23.44 | 87979 | 103247
8 | 22:56.48 | 4:24.58 | 103248 | 123105
9 | 27:21.31 | 5:29.29 | 123106 | 147809
10 | 32:50.60 | 4:40.10 | 147810 | 168819
11 | 37:30.70 | 3:50.48 | 168820 | 186117
12 | 41:21.43 | 3:07.20 | 186118 | 200162
13 | 44:28.63 | 4:00.64 | 200163 | 218226

Track 1

Filename D:\01 Chris Goss & The Forest Rangers - Sitting On Top Of The World.wav

Pre-gap length 0:00:02.00

Peak level 100.0 %
Extraction speed 2.2 X
Track quality 100.0 %
Test CRC 9AF5E753
Copy CRC 9AF5E753
Accurately ripped (confidence 13) [10B3F273] (AR v2)
Copy OK

Track 2

Filename D:\02 Jennifer O'Connor & The Forest Rangers - Running Blues.wav

Peak level 97.7 %
Extraction speed 2.2 X
Track quality 100.0 %
Test CRC 133D359D
Copy CRC 133D359D
Accurately ripped (confidence 13) [260F7E87] (AR v2)
Copy OK

Track 3

Filename D:\03 Leonard Cohen - Come Healing.wav

Peak level 99.7 %
Extraction speed 2.4 X
Track quality 100.0 %
Test CRC 9CD48694
Copy CRC 9CD48694
Accurately ripped (confidence 12) [FCA7E804] (AR v2)
Copy OK

Track 4

Filename D:\04 Billy Valentine & The Forest Rangers - (Sittin' On) The Dock Of The Bay.wav

Peak level 100.0 %
Extraction speed 2.6 X
Track quality 100.0 %
Test CRC AAC989F1
Copy CRC AAC989F1
Accurately ripped (confidence 13) [25816D3D] (AR v2)
Copy OK

Track 5

Filename D:\05 Franky Perez & The Forest Rangers - Love Is My Religion.wav

Peak level 100.0 %
Extraction speed 2.7 X
Track quality 100.0 %
Test CRC A6F5EA1E
Copy CRC A6F5EA1E
Accurately ripped (confidence 13) [A6DAFD29] (AR v2)
Copy OK

Track 6

Filename D:\06 Noah Gundersen & The Forest Rangers - As Tears Go By.wav

Peak level 100.0 %
Extraction speed 3.0 X
Track quality 100.0 %
Test CRC C774D87F
Copy CRC C774D87F
Accurately ripped (confidence 12) [E2418EBD] (AR v2)
Copy OK

Track 7

Filename D:\07 Battleme & The Forest Rangers - I See Through You (Free Your Mind).wav

Peak level 100.0 %
Extraction speed 3.0 X
Track quality 100.0 %
Test CRC EF04C4B1
Copy CRC EF04C4B1
Accurately ripped (confidence 13) [6E1BC94E] (AR v2)
Copy OK

Track 8

Filename D:\08 Noah Gundersen & The Forest Rangers - Day Is Gone.wav

Peak level 100.0 %
Extraction speed 3.3 X
Track quality 100.0 %
Test CRC E9BE4D03
Copy CRC E9BE4D03
Accurately ripped (confidence 12) [F7B488D6] (AR v2)
Copy OK

Track 9

Filename D:\09 The Forest Rangers feat. Audra May, Billy Valentine, Katey Sagal, Curtis Stigers & Franky Perez - Everyday People.wav

Peak level 100.0 %
Extraction speed 3.6 X
Track quality 100.0 %
Test CRC F4B537A9
Copy CRC F4B537A9
Accurately ripped (confidence 13) [FED0F89B] (AR v2)
Copy OK

Track 10

Filename D:\10 Katey Sagal & The Forest Rangers - For A Dancer.wav

Peak level 100.0 %
Extraction speed 3.7 X
Track quality 100.0 %
Test CRC 96667019
Copy CRC 96667019
Accurately ripped (confidence 14) [9E938F56] (AR v2)
Copy OK

Track 11

Filename D:\11 The Forest Rangers feat. Franky Perez - Slip Kid.wav

Peak level 100.0 %
Extraction speed 3.7 X
Track quality 100.0 %
Test CRC 50E28674
Copy CRC 50E28674
Accurately ripped (confidence 13) [DC6B47EE] (AR v2)
Copy OK

Track 12

Filename D:\12 Maggie Siff & The Forest Rangers - Lullaby For A Soldier (Arms Of The Angels).wav

Peak level 74.6 %
Extraction speed 3.6 X
Track quality 100.0 %
Test CRC 177B06FD
Copy CRC 177B06FD
Accurately ripped (confidence 13) [A12D48E6] (AR v2)
Copy OK

Track 13

Filename D:\13 Joshua James - Crash This Train.wav

Peak level 99.9 %
Extraction speed 3.9 X
Track quality 100.0 %
Test CRC 0A2031E8
Copy CRC 0A2031E8
Accurately ripped (confidence 13) [E3FE1148] (AR v2)
Copy OK

All tracks accurately ripped

No errors occurred

End of status report

==== Log checksum 6285C0BC3E4670E69127A75FEBF195446ECFB856B6621AFC057ED62DB31DD25C ====
REM GENRE Soundtrack
REM DATE 2013
REM DISCID B80B5D0D
REM COMMENT "ExactAudioCopy v1.0b3"
PERFORMER "Various Artists"
TITLE "Songs of Anarchy:Vol. 3 (US, 88843 01434 2)"
FILE "01 Chris Goss & The Forest Rangers - Sitting On Top Of The World.wav" WAVE
TRACK 01 AUDIO
TITLE "Sitting On Top Of The World"
PERFORMER "Chris Goss & The Forest Rangers"
ISRC USQX91302186
INDEX 01 00:00:00
FILE "02 Jennifer O'Connor & The Forest Rangers - Running Blues.wav" WAVE
TRACK 02 AUDIO
TITLE "Running Blues"
PERFORMER "Jennifer O'Connor & The Forest Rangers"
ISRC USQX91302061
INDEX 01 00:00:00
FILE "03 Leonard Cohen - Come Healing.wav" WAVE
TRACK 03 AUDIO
TITLE "Come Healing"
PERFORMER "Leonard Cohen"
ISRC CAC221100034
INDEX 01 00:00:00
FILE "04 Billy Valentine & The Forest Rangers - (Sittin' On) The Dock Of The Bay.wav" WAVE
TRACK 04 AUDIO
TITLE "(Sittin' On) The Dock Of The Bay"
PERFORMER "Billy Valentine & The Forest Rangers"
ISRC USQX91301925
INDEX 01 00:00:00
FILE "05 Franky Perez & The Forest Rangers - Love Is My Religion.wav" WAVE
TRACK 05 AUDIO
TITLE "Love Is My Religion"
PERFORMER "Franky Perez & The Forest Rangers"
ISRC USQX91302225
INDEX 01 00:00:00
FILE "06 Noah Gundersen & The Forest Rangers - As Tears Go By.wav" WAVE
TRACK 06 AUDIO
TITLE "As Tears Go By"
PERFORMER "Noah Gundersen & The Forest Rangers"
ISRC USQX91302000
INDEX 01 00:00:00
FILE "07 Battleme & The Forest Rangers - I See Through You (Free Your Mind).wav" WAVE
TRACK 07 AUDIO
TITLE "I See Through You (Free Your Mind)"
PERFORMER "Battleme & The Forest Rangers"
ISRC USQX91302404
INDEX 01 00:00:00
FILE "08 Noah Gundersen & The Forest Rangers - Day Is Gone.wav" WAVE
TRACK 08 AUDIO
TITLE "Day Is Gone"
PERFORMER "Noah Gundersen & The Forest Rangers"
ISRC USQX91302403
INDEX 01 00:00:00
FILE "09 The Forest Rangers feat. Audra May, Billy Valentine, Katey Sagal, Curtis Stigers & Franky Perez - Everyday People.wav" WAVE
TRACK 09 AUDIO
TITLE "Everyday People"
PERFORMER "The Forest Rangers feat. Audra May, Billy Valentine, Katey Sagal, Curtis Stig..."
ISRC USQX91302060
INDEX 01 00:00:00
FILE "10 Katey Sagal & The Forest Rangers - For A Dancer.wav" WAVE
TRACK 10 AUDIO
TITLE "For A Dancer"
PERFORMER "Katey Sagal & The Forest Rangers"
ISRC USQX91302411
INDEX 01 00:00:00
FILE "11 The Forest Rangers feat. Franky Perez - Slip Kid.wav" WAVE
TRACK 11 AUDIO
TITLE "Slip Kid"
PERFORMER "The Forest Rangers feat. Franky Perez"
ISRC USQX91302407
INDEX 01 00:00:00
FILE "12 Maggie Siff & The Forest Rangers - Lullaby For A Soldier (Arms Of The Angels).wav" WAVE
TRACK 12 AUDIO
TITLE "Lullaby For A Soldier (Arms Of The Angels)"
PERFORMER "Maggie Siff & The Forest Rangers"
ISRC USQX91302410
INDEX 01 00:00:00
FILE "13 Joshua James - Crash This Train.wav" WAVE
TRACK 13 AUDIO
TITLE "Crash This Train"
PERFORMER "Joshua James"
ISRC USFM91300126
INDEX 01 00:00:00


<div class="q-wrap">
<div class="q-head"><span><b>Amazon.com</b> писал(а):</span></div>
<div class="q">Presenting the fourth installment of music to FX's highest rated series, Sons of Anarchy. Songs of Anarchy: Volume 4 kicks off with a glorious Forest Rangers cover of Queen's "Bohemian Rhapsody" featuring The White Buffalo, Billy Valentine & Frankie Perez, and includes two Bob Dylan covers; an instrumental version of "All Along The Watchtower," and Amos Lee & The Forest Rangers rendering a heart-wrenching version of "Boots Of Spanish Leather." Golden Globe® Award winning actress/singer Katey Sagal is featured along with The Forest Rangers on "Greensleeves." This collection also includes the special finale track, "Come Join the Murder" by The White Buffalo & The Forest Rangers, and "Make It Rain" by Ed Sheeran from the shocking 'Red Rose' episode. A second finale track, "Can t Help Falling in Love," by Frankie Perez & The Forest Rangers, will be exclusively available on the physical release.

The Forest Rangers serve as the Sons Of Anarchy house band, which includes the show's music composer Bob Thiele, Greg Leisz (guitar/banjo), John Philip Shenale (keyboards), Lyle Workman (guitar), Dave Way (recording Engineer and Sergeant at Arms), Davey Faragher (bass), Brian Macleod (drums) and Velvet Revolver guitarist Dave Kushner.

Sons of Anarchy was created by Kurt Sutter, who also serves as Executive Producer along with John Linson, Art Linson and Paris Barclay. The series is produced by FX Productions and Fox 21 and stars Charlie Hunnam, Ron Perlman and Katey Sagal.
01. BOHEMIAN RHAPSODY - The Forest Rangers feat. The White Buffalo, Billy Valentine & Franky Perez (6:44)
02. NEVER MY LOVE - Audra Mae & The Forest Rangers feat. Billy Valentine (4:26)
03. THE AGE OF AQUARIUS / LET THE SUN SHINE IN - Joshua James & The Forest Rangers / Billy Valentine & The Forest Rangers (5:32)
04. GREENSLEEVES - Katey Sagal & The Forest Rangers (5:28)
05. ALL ALONG THE WATCHTOWER - Billy Valentine & The Forest Rangers (3:58)
06. MAKE IT RAIN - Ed Sheeran (6:42)
07. BABY, PLEASE DON'T GO - Franky Perez & The Forest Rangers (3:05)
08. BLUE ANGEL - Billy Valentine & The Forest Rangers (5:01)
09. ALL ALONG THE WATCHTOWER (INSTRUMENTAL) - The Forest Rangers feat. Gabe Witcher (2:52)
10. CAN'T HELP FALLING IN LOVE* - Franky Perez & The Forest Rangers (2:14)
11. BOOTS OF SPANISH LEATHER - Amos Lee & The Forest Rangers (5:11)
12. COME JOIN THE MURDER - The White Buffalo & The Forest Rangers (7:27)
* exclusively available on the physical release

Total Length: 58:47
Release Date: February 24, 2015
Label: Columbia
Soundtrack Album Producers: Kurt Sutter and Bob Thiele
01 - 7x01 Black Widower - Closing montage.
02 - 7x01 Black Widower - Opening montage.
03 - 7x05 Some Strange Eruption - Closing montage.
04 - 7x07 Greensleeves - Closing montage.
05 - 7x08 The Separation of Crows - Closing montage.
06 - 7x12 Red Rose - Closing montage.
07 - 7x04 Poor Little Lambs - Closing montage.
08 - not used
09 - 7x08 The Separation of Crows - Opening montage.
10 - 7x13 Papa's Goods - Chasing Connor.
11 - 7x10 Faith and Despondency - Opening montage.
12 - 7x13 Papa's Goods - Closing montage.
</div>
</div>
Exact Audio Copy V1.0 beta 3 from 29. August 2011

EAC extraction logfile from 24. March 2015, 20:30

Various Artists / Songs of Anarchy:Vol. 4 (US, 88875 06146 2)

Used drive : Optiarc BD RW BD-5300S Adapter: 3 ID: 1

Read mode : Secure
Utilize accurate stream : Yes
Defeat audio cache : Yes
Make use of C2 pointers : No

Read offset correction : 6
Overread into Lead-In and Lead-Out : No
Fill up missing offset samples with silence : Yes
Delete leading and trailing silent blocks : No
Null samples used in CRC calculations : Yes
Used interface : Native Win32 interface for Win NT & 2000
Gap handling : Appended to previous track

Used output format : User Defined Encoder
Selected bitrate : 128 kBit/s
Quality : High
Add ID3 tag : Yes
Command line compressor : C:\Program Files (x86)\Exact Audio Copy\Flac\flac.exe
Additional command line options : -V -8 -T "Genre=%genre%" -T "Artist=%artist%" -T "Title=%title%" -T "Album=%albumtitle%" -T "Date=%year%" -T "Tracknumber=%tracknr%" -T "Comment=%comment%" %source%

TOC of the extracted CD

Track | Start | Length | Start sector | End sector
---------------------------------------------------------
1 | 0:00.00 | 6:44.67 | 0 | 30366
2 | 6:44.67 | 4:26.41 | 30367 | 50357
3 | 11:11.33 | 5:32.63 | 50358 | 75320
4 | 16:44.21 | 5:28.60 | 75321 | 99980
5 | 22:13.06 | 3:58.01 | 99981 | 117831
6 | 26:11.07 | 6:42.59 | 117832 | 148040
7 | 32:53.66 | 3:05.48 | 148041 | 161963
8 | 35:59.39 | 5:01.36 | 161964 | 184574
9 | 41:01.00 | 2:52.71 | 184575 | 197545
10 | 43:53.71 | 2:14.28 | 197546 | 207623
11 | 46:08.24 | 5:11.52 | 207624 | 231000
12 | 51:20.01 | 7:27.13 | 231001 | 264538

Track 1

Filename D:\01 The Forest Rangers feat. The White Buffalo, Billy Valentine & Franky Perez - Bohemian Rhapsody.wav

Pre-gap length 0:00:02.00

Peak level 100.0 %
Extraction speed 2.4 X
Track quality 100.0 %
Test CRC 0FCEE9FB
Copy CRC 0FCEE9FB
Accurately ripped (confidence 2) [9EC2F3AC] (AR v2)
Copy OK

Track 2

Filename D:\02 Audra Mae & The Forest Rangers feat. Billy Valentine - Never My Love.wav

Peak level 98.3 %
Extraction speed 2.0 X
Track quality 99.9 %
Test CRC 9EBEBC03
Copy CRC 9EBEBC03
Accurately ripped (confidence 2) [8BF60A6E] (AR v2)
Copy OK

Track 3

Filename D:\03 Joshua James & The Forest Rangers , Billy Valentine & The Forest Rangers - The Age Of Aquarius , Let The Sun Shine In.wav

Peak level 100.0 %
Extraction speed 2.9 X
Track quality 100.0 %
Test CRC 9F48BB2C
Copy CRC 9F48BB2C
Accurately ripped (confidence 2) [B003431B] (AR v2)
Copy OK

Track 4

Filename D:\04 Katey Sagal & The Forest Rangers - Greensleeves.wav

Peak level 85.5 %
Extraction speed 3.2 X
Track quality 100.0 %
Test CRC 295092EB
Copy CRC 295092EB
Accurately ripped (confidence 2) [EE505E7F] (AR v2)
Copy OK

Track 5

Filename D:\05 Billy Valentine & The Forest Rangers - All Along The Watchtower.wav

Peak level 99.4 %
Extraction speed 2.4 X
Track quality 99.9 %
Test CRC 942FEAB1
Copy CRC 942FEAB1
Accurately ripped (confidence 2) [D84DCE42] (AR v2)
Copy OK

Track 6

Filename D:\06 Ed Sheeran - Make It Rain.wav

Peak level 100.0 %
Extraction speed 3.6 X
Track quality 100.0 %
Test CRC CC37F87B
Copy CRC CC37F87B
Accurately ripped (confidence 2) [9BC2F8BC] (AR v2)
Copy OK

Track 7

Filename D:\07 Franky Perez & The Forest Rangers - Baby, Please Don't Go.wav

Peak level 100.0 %
Extraction speed 3.5 X
Track quality 100.0 %
Test CRC 075A0311
Copy CRC 075A0311
Accurately ripped (confidence 2) [FA7B5447] (AR v2)
Copy OK

Track 8

Filename D:\08 Billy Valentine & The Forest Rangers - Blue Angel.wav

Peak level 99.5 %
Extraction speed 3.8 X
Track quality 100.0 %
Test CRC F1E1E6CE
Copy CRC F1E1E6CE
Accurately ripped (confidence 2) [FA509EDF] (AR v2)
Copy OK

Track 9

Filename D:\09 The Forest Rangers feat. Gabe Witcher - All Along The Watchtower (Instrumental).wav

Peak level 92.4 %
Extraction speed 2.5 X
Track quality 99.9 %
Test CRC 9B16AF14
Copy CRC 9B16AF14
Accurately ripped (confidence 2) [1B32C444] (AR v2)
Copy OK

Track 10

Filename D:\10 Franky Perez & The Forest Rangers - Can't Help Falling In Love.wav

Peak level 99.1 %
Extraction speed 3.5 X
Track quality 100.0 %
Test CRC 33609A7A
Copy CRC 33609A7A
Accurately ripped (confidence 2) [DDB8C766] (AR v2)
Copy OK

Track 11

Filename D:\11 Amos Lee & The Forest Rangers - Boots Of Spanish Leather.wav

Peak level 100.0 %
Extraction speed 4.2 X
Track quality 100.0 %
Test CRC 9199AB83
Copy CRC 9199AB83
Accurately ripped (confidence 2) [A6333395] (AR v2)
Copy OK

Track 12

Filename D:\12 The White Buffalo & The Forest Rangers - Come Join The Murder.wav

Peak level 99.8 %
Extraction speed 3.7 X
Track quality 99.9 %
Test CRC F93818C9
Copy CRC F93818C9
Accurately ripped (confidence 2) [D6485100] (AR v2)
Copy OK

All tracks accurately ripped

No errors occurred

End of status report

==== Log checksum 6A0324C07E6BD88BC80100AAB8810550F50610A25AE2AC81EBD67C56AA6A2D2D ====
REM GENRE Soundtrack
REM DATE 2015
REM DISCID 9B0DC70C
REM COMMENT "ExactAudioCopy v1.0b3"
PERFORMER "Various Artists"
TITLE "Songs of Anarchy:Vol. 4 (US, 88875 06146 2)"
FILE "01 The Forest Rangers feat. The White Buffalo, Billy Valentine & Franky Perez - Bohemian Rhapsody.wav" WAVE
TRACK 01 AUDIO
TITLE "Bohemian Rhapsody"
PERFORMER "The Forest Rangers feat. The White Buffalo, Billy Valentine & Franky Perez"
ISRC USQX91401767
FLAGS DCP
INDEX 01 00:00:00
FILE "02 Audra Mae & The Forest Rangers feat. Billy Valentine - Never My Love.wav" WAVE
TRACK 02 AUDIO
TITLE "Never My Love"
PERFORMER "Audra Mae & The Forest Rangers feat. Billy Valentine"
ISRC USQX91401766
FLAGS DCP
INDEX 01 00:00:00
FILE "03 Joshua James & The Forest Rangers , Billy Valentine & The Forest Rangers - The Age Of Aquarius , Let The Sun Shine In.wav" WAVE
TRACK 03 AUDIO
TITLE "The Age Of Aquarius / Let The Sun Shine In"
PERFORMER "Joshua James & The Forest Rangers / Billy Valentine & The Forest Rangers"
ISRC USQX91402160
FLAGS DCP
INDEX 01 00:00:00
FILE "04 Katey Sagal & The Forest Rangers - Greensleeves.wav" WAVE
TRACK 04 AUDIO
TITLE "Greensleeves"
PERFORMER "Katey Sagal & The Forest Rangers"
ISRC USQX91402218
FLAGS DCP
INDEX 01 00:00:00
FILE "05 Billy Valentine & The Forest Rangers - All Along The Watchtower.wav" WAVE
TRACK 05 AUDIO
TITLE "All Along The Watchtower"
PERFORMER "Billy Valentine & The Forest Rangers"
ISRC USQX91402395
FLAGS DCP
INDEX 01 00:00:00
FILE "06 Ed Sheeran - Make It Rain.wav" WAVE
TRACK 06 AUDIO
TITLE "Make It Rain"
PERFORMER "Ed Sheeran"
ISRC GBAHS1400488
FLAGS DCP
INDEX 01 00:00:00
FILE "07 Franky Perez & The Forest Rangers - Baby, Please Don't Go.wav" WAVE
TRACK 07 AUDIO
TITLE "Baby, Please Don't Go"
PERFORMER "Franky Perez & The Forest Rangers"
ISRC USQX91401899
FLAGS DCP
INDEX 01 00:00:00
FILE "08 Billy Valentine & The Forest Rangers - Blue Angel.wav" WAVE
TRACK 08 AUDIO
TITLE "Blue Angel"
PERFORMER "Billy Valentine & The Forest Rangers"
ISRC USQX91402647
FLAGS DCP
INDEX 01 00:00:00
FILE "09 The Forest Rangers feat. Gabe Witcher - All Along The Watchtower (Instrumental).wav" WAVE
TRACK 09 AUDIO
TITLE "All Along The Watchtower (Instrumental)"
PERFORMER "The Forest Rangers feat. Gabe Witcher"
ISRC USQX91402513
FLAGS DCP
INDEX 01 00:00:00
FILE "10 Franky Perez & The Forest Rangers - Can't Help Falling In Love.wav" WAVE
TRACK 10 AUDIO
TITLE "Can't Help Falling In Love"
PERFORMER "Franky Perez & The Forest Rangers"
ISRC USQX91402690
FLAGS DCP
INDEX 01 00:00:00
FILE "11 Amos Lee & The Forest Rangers - Boots Of Spanish Leather.wav" WAVE
TRACK 11 AUDIO
TITLE "Boots Of Spanish Leather"
PERFORMER "Amos Lee & The Forest Rangers"
ISRC USQX91402460
FLAGS DCP
INDEX 01 00:00:00
FILE "12 The White Buffalo & The Forest Rangers - Come Join The Murder.wav" WAVE
TRACK 12 AUDIO
TITLE "Come Join The Murder"
PERFORMER "The White Buffalo & The Forest Rangers"
ISRC USSM11409628
FLAGS DCP
INDEX 01 00:00:00




Трекер:  [ 28-Мар-2015 15:30 ]

  

Скачать .torrent

Размер .torrent файла 28 KB


Размер: 1.37 GB
Хэш (hash) релиза: 005469902fcdce74a8c2e2127456695d6d97e595

Торренты, похожие на Сыны Анархии Sons Of Anarchy скачать торрент

Форум Название Автор Размер S L Добавлен
Саундтреки к фильмам и мультфильмам (lossless) ·· (Soundtrack) Дети Анархии / Сыны Анархии / Sons Of Anarchy: Songs Of Anarchy - 2011, FLAC (image+.cue), lossless uzi2009 401825489383 MB 0 0 1323966190

19:23

15-Дек-11

Саундтреки к фильмам и мультфильмам (mp3) ·· (Soundtrack) Сыны Анархии / Sons Of Anarchy (Songs Of Anarchy: Vol. 4) - 2015, MP3, 320 kbps Galfimbul 142598290136 MB 0 0 1427142339

23:25

23-Мар-15

Саундтреки к фильмам и мультфильмам (mp3) ·· (Soundtrack) Сыны Анархии / Сыновья Анархии / Sons of Anarchy: Songs of Anarchy Music from Sons of Anarchy Seasons 1-4 - 2011, MP3, 320 kbps Galfimbul 149052705142 MB 0 0 1323432094

15:01

9-Дек-11

Саундтреки к фильмам и мультфильмам (mp3) ·· (Soundtrack) Сыны анархии / Сыновья анархии / Дети анархии / Sons of Anarchy (Songs of Anarchy: vol. 4) (VA) - 2015, MP3, 192 kbps Galfimbul 9080658587 MB 0 0 1426177206

19:20

12-Мар-15

Саундтреки ·· (Soundtrack) Сыны Анархии / Сыновья Анархии / Sons Of Anarchy (Songs Of Anarchy Vol. 2) - 2012, MP3, V0 Galfimbul 8996969886 MB 0 0 1357245720

23:42

3-Янв-13

Саундтреки к фильмам и мультфильмам (mp3) ·· [Soundtrack / Unofficial] Сыны анархии: Сезоны 1-6 / Sons of anarchy: Seasons 1-6 - 2008-2013, MP3, 128-320 kbps Galfimbul 35429933783.3 GB 0 0 1418468690

14:04

13-Дек-14

Еще никто не оставлял запись к записи скачать торрент Сыны Анархии Sons Of Anarchy . Будь первым!

!Обратная связь