Скачать через торрент музыку Святой Винсент St. Vincent - 2014, FLAC бесплатно без регистрации torrent

Если у вас наблюдаются проблемы со скриншотами, переходом по ссылками, скачиванием торрентов - проблемы в блокировщике рекламы AdBlock. #хорошегоДня!


Статистика раздачи
Размер:  231 MB   |    Зарегистрирован:  2 года 8 месяцев   |    .torrent скачан:  37 раз   |   
Раздают:  1  
   
Загрузка...
 
Автор Сообщение

Galfimbul

avatar Galfimbul


Святой Винсент / St. Vincent


Жанр: Soundtrack || Год выпуска диска: 2014 || Страна-производитель диска: США || Аудио кодек: FLAC (*.flac) || Тип рипа: tracks+.cue || Битрейт аудио: lossless || Продолжительность: 00:36:28 || Источник: What.cd (Despacio) || Наличие сканов в содержимом раздачи: нет
Треклист:
01. Tweedy – Everyone Hides [01:10]
02. The Webs – Try Loving Me [2:58]
03. Jefferson Airplane – Somebody to Love [2:59]
04. Tweedy – Why Why Why [01:49]
05. Ca$hizz Klay featuring Fingazz – You Da One [3:54]
06. Nyzzy Nyce – Stripper Pole [2:53]
07. Brewer & Shipley – One Toke Over the Line [3:21]
08. Bronze Radio Return – Further On [2:27]
09. JD and the Straight Shot – Hard To Find [3:28]
10. The National – Start a War [3:17]
11. Vechyaslav Samarin – Molodaya Luna [3:10]
12. Bob Dylan – Shelter from the Storm [5:01]
Exact Audio Copy V1.0 beta 3 from 29. August 2011

EAC extraction logfile from 23. March 2015, 19:53

- / St.Vincent

Used drive : HL-DT-STDVDRAM GT30N Adapter: 2 ID: 0

Read mode : SecureUtilize accurate stream : NoDefeat audio cache : YesMake use of C2 pointers : No

Read offset correction : 103Overread into Lead-In and Lead-Out : NoFill up missing offset samples with silence : YesDelete leading and trailing silent blocks : NoNull samples used in CRC calculations : YesUsed interface : Native Win32 interface for Win NT & 2000Gap handling : Appended to previous track

Used output format : User Defined EncoderSelected bitrate : 1024 kBit/sQuality : HighAdd ID3 tag : NoCommand line compressor : C:\Program Files (x86)\Exact Audio Copy\Flac\flac.exeAdditional command line options : -8 -V -T "ARTIST=%artist%" -T "TITLE=%title%" -T "ALBUM=%albumtitle%" -T "DATE=%year%" -T "TRACKNUMBER=%tracknr%" -T "GENRE=%genre%" -T "PERFORMER=%albuminterpret%" -T "COMPOSER=%composer%" %haslyrics%--tag-from-file=LYRICS="%lyricsfile%"%haslyrics% -T "ALBUMARTIST=%albumartist%" -T "DISCNUMBER=%cdnumber%" -T "TOTALDISCS=%totalcds%" -T "TOTALTRACKS=%numtracks%" -T "COMMENT=%comment%" %source% -o %dest%

TOC of the extracted CD

Track | Start | Length | Start sector | End sector --------------------------------------------------------- 1 | 0:00.00 | 1:10.05 | 0 | 5254 2 | 1:10.05 | 2:58.23 | 5255 | 18627 3 | 4:08.28 | 2:59.14 | 18628 | 32066 4 | 7:07.42 | 1:48.49 | 32067 | 40215 5 | 8:56.16 | 3:54.11 | 40216 | 57776 6 | 12:50.27 | 2:53.20 | 57777 | 70771 7 | 15:43.47 | 3:20.54 | 70772 | 85825 8 | 19:04.26 | 2:27.18 | 85826 | 96868 9 | 21:31.44 | 3:28.29 | 96869 | 112497 10 | 24:59.73 | 3:17.21 | 112498 | 127293 11 | 28:17.19 | 3:09.71 | 127294 | 141539 12 | 31:27.15 | 5:00.64 | 141540 | 164103

Track 1

Filename Z:\rip\Various Artists - St. Vincent (2014) [FLAC]\01 - Tweedy - Everyone Hides.wav

Pre-gap length 0:00:02.00

Peak level 99.0 % Extraction speed 0.5 X Track quality 100.0 % Test CRC 8D8F68F3 Copy CRC 8D8F68F3 Accurately ripped (confidence 1) [9863912A] (AR v2) Copy OK

Track 2

Filename Z:\rip\Various Artists - St. Vincent (2014) [FLAC]\02 - The Webs - Try Loving Me.wav

Peak level 99.0 % Extraction speed 0.7 X Track quality 100.0 % Test CRC 3CEE6F79 Copy CRC 3CEE6F79 Accurately ripped (confidence 1) [45C5D3F9] (AR v2) Copy OK

Track 3

Filename Z:\rip\Various Artists - St. Vincent (2014) [FLAC]\03 - Jefferson Airplane - Somebody To Love.wav

Pre-gap length 0:00:00.82

Peak level 99.0 % Extraction speed 0.7 X Track quality 100.0 % Test CRC 9126CB4F Copy CRC 9126CB4F Accurately ripped (confidence 1) [27AB7171] (AR v2) Copy OK

Track 4

Filename Z:\rip\Various Artists - St. Vincent (2014) [FLAC]\04 - Tweedy - Why Why Why.wav

Pre-gap length 0:00:01.76

Peak level 99.0 % Extraction speed 0.7 X Track quality 100.0 % Test CRC 5C18AFA0 Copy CRC 5C18AFA0 Accurately ripped (confidence 1) [B479F949] (AR v2) Copy OK

Track 5

Filename Z:\rip\Various Artists - St. Vincent (2014) [FLAC]\05 - Ca$hizz Klay - You Da One.wav

Pre-gap length 0:00:00.42

Peak level 91.5 % Extraction speed 0.8 X Track quality 100.0 % Test CRC A3025F01 Copy CRC A3025F01 Accurately ripped (confidence 1) [185B1616] (AR v2) Copy OK

Track 6

Filename Z:\rip\Various Artists - St. Vincent (2014) [FLAC]\06 - Nyzzy Nyce - Stripper Pole.wav

Pre-gap length 0:00:01.53

Peak level 99.0 % Extraction speed 0.8 X Track quality 100.0 % Test CRC E04148CB Copy CRC E04148CB Accurately ripped (confidence 1) [FE59F954] (AR v2) Copy OK

Track 7

Filename Z:\rip\Various Artists - St. Vincent (2014) [FLAC]\07 - Brewer & Shipley - One Toke Over The Line.wav

Pre-gap length 0:00:00.92

Peak level 99.0 % Extraction speed 0.8 X Track quality 100.0 % Test CRC 2634DA55 Copy CRC 2634DA55 Accurately ripped (confidence 1) [C645E1A8] (AR v2) Copy OK

Track 8

Filename Z:\rip\Various Artists - St. Vincent (2014) [FLAC]\08 - Bronze Radio Return - Further On.wav

Pre-gap length 0:00:00.90

Peak level 93.4 % Extraction speed 0.8 X Track quality 100.0 % Test CRC 664B5D1C Copy CRC 664B5D1C Accurately ripped (confidence 1) [51230D59] (AR v2) Copy OK

Track 9

Filename Z:\rip\Various Artists - St. Vincent (2014) [FLAC]\09 - JD & The Straight Shot - Hard To Find.wav

Pre-gap length 0:00:01.16

Peak level 99.0 % Extraction speed 0.9 X Track quality 100.0 % Test CRC 956F7676 Copy CRC 956F7676 Accurately ripped (confidence 1) [FB90F996] (AR v2) Copy OK

Track 10

Filename Z:\rip\Various Artists - St. Vincent (2014) [FLAC]\10 - The National - Start A War.wav

Pre-gap length 0:00:01.05

Peak level 87.3 % Extraction speed 0.9 X Track quality 100.0 % Test CRC 76E552B8 Copy CRC 76E552B8 Accurately ripped (confidence 1) [8F2DDFC1] (AR v2) Copy OK

Track 11

Filename Z:\rip\Various Artists - St. Vincent (2014) [FLAC]\11 - Vechyaslav Samarin - Molodaya Luna.wav

Pre-gap length 0:00:00.49

Peak level 99.6 % Extraction speed 1.0 X Track quality 100.0 % Test CRC 1FDFFF8D Copy CRC 1FDFFF8D Accurately ripped (confidence 1) [FE57F242] (AR v2) Copy OK

Track 12

Filename Z:\rip\Various Artists - St. Vincent (2014) [FLAC]\12 - Bob Dylan - Shelter From The Storm.wav

Pre-gap length 0:00:01.65

Peak level 99.0 % Extraction speed 1.1 X Track quality 100.0 % Test CRC 616E49B9 Copy CRC 616E49B9 Accurately ripped (confidence 1) [D7C2AEE5] (AR v2) Copy OK

All tracks accurately ripped

No errors occurred

End of status report

==== Log checksum 2EFF84D8DDBE839A78EAFB59AE3BEBF65A1F1B88DA4ABE18BDEF5DAC1E333879 ====
REM GENRE SoundtrackREM DATE 2014REM DISCID A8088C0CREM COMMENT "ExactAudioCopy v1.0b3"CATALOG 0888750110725PERFORMER ""TITLE "St.Vincent"FILE "01 - Tweedy - Everyone Hides.wav" WAVE TRACK 01 AUDIO TITLE "Everyone Hides" PERFORMER "Tweedy" ISRC USSM11407713 INDEX 01 00:00:00FILE "02 - The Webs - Try Loving Me.wav" WAVE TRACK 02 AUDIO TITLE "Try Loving Me" PERFORMER "The Webs" ISRC USCW61304319 INDEX 01 00:00:00 TRACK 03 AUDIO TITLE "Somebody To Love" PERFORMER "Jefferson Airplane" ISRC USRC16607719 INDEX 00 02:57:36FILE "03 - Jefferson Airplane - Somebody To Love.wav" WAVE INDEX 01 00:00:00 TRACK 04 AUDIO TITLE "Why Why Why" PERFORMER "Tweedy" ISRC USSM11407714 INDEX 00 02:57:32FILE "04 - Tweedy - Why Why Why.wav" WAVE INDEX 01 00:00:00 TRACK 05 AUDIO TITLE "You Da One" PERFORMER "Ca$hizz Klay" ISRC USSM11407631 INDEX 00 01:48:17FILE "05 - Ca$hizz Klay - You Da One.wav" WAVE INDEX 01 00:00:00 TRACK 06 AUDIO TITLE "Stripper Pole" PERFORMER "Nyzzy Nyce" ISRC US6YF1400011 INDEX 00 03:52:46FILE "06 - Nyzzy Nyce - Stripper Pole.wav" WAVE INDEX 01 00:00:00 TRACK 07 AUDIO TITLE "One Toke Over The Line" PERFORMER "Brewer & Shipley" ISRC USBR17100004 INDEX 00 02:52:26FILE "07 - Brewer & Shipley - One Toke Over The Line.wav" WAVE INDEX 01 00:00:00 TRACK 08 AUDIO TITLE "Further On" PERFORMER "Bronze Radio Return" ISRC USQY51305751 INDEX 00 03:19:61FILE "08 - Bronze Radio Return - Further On.wav" WAVE INDEX 01 00:00:00 TRACK 09 AUDIO TITLE "Hard To Find" PERFORMER "JD & The Straight Shot" ISRC QM7NC1400003 INDEX 00 02:26:06FILE "09 - JD & The Straight Shot - Hard To Find.wav" WAVE INDEX 01 00:00:00 TRACK 10 AUDIO TITLE "Start A War" PERFORMER "The National" ISRC GBAZP0700010 INDEX 00 03:27:25FILE "10 - The National - Start A War.wav" WAVE INDEX 01 00:00:00 TRACK 11 AUDIO TITLE "Molodaya Luna" PERFORMER "Vechyaslav Samarin" ISRC QMPU51218884 INDEX 00 03:16:59FILE "11 - Vechyaslav Samarin - Molodaya Luna.wav" WAVE INDEX 01 00:00:00 TRACK 12 AUDIO TITLE "Shelter From The Storm" PERFORMER "Bob Dylan" ISRC USSM19906476 INDEX 00 03:08:22FILE "12 - Bob Dylan - Shelter From The Storm.wav" WAVE INDEX 01 00:00:00

MP3: [url=...4977874](Soundtrack) Святой Винсент / St. Vincent - 2014, MP3, 320 kbps[/url]


Трекер:  [ 04-Апр-2015 17:00 ]

  

Скачать .torrent

Размер .torrent файла 19 KB


Размер: 231 MB
Хэш (hash) релиза: 8e330d53d566dcbcb692d28ee532f0a8a61395fd

Еще никто не оставлял запись к записи скачать торрент Святой Винсент St. Vincent - 2014, FLAC . Будь первым!

!Обратная связь