! On Your Mark torrent

, , - AdBlock. #!


2.54 GB   |    :  2 8    |    .torrent :  43    |   
1  
   
...
 

Galfimbul

avatar Galfimbul


[url=...4722800] [/url][url=...4612785] [/url][url=...4629918] [/url][url=...3690943] [/url][url=...4766434] [/url][url=...4651642] [/url][url=...4901371] [/url][url=...4178733] [/url][url=...4936128/] [/url][url=...4978082] [/url][url=...4851914] [/url][url=...4119317] [/url][url=...3875703] [/url][url=...4465304] [/url] ジブリ実験劇場
:
: 1995 .
: , ,
: OVA
: 00:06:46
: Hayao Miyazaki
: Ghibli

:
, Chage&Aska, " ".
.
: "On Your Mark" , "Castles In The Air".

:
MGVC- "On Your Mark" (- " ").
36- BD- KDM ( ) .
, , [url=...4782290][/url] ( , 480i).
, .
.
Sonic Scenarist. Sony PS3, TMT5 PowerDVD 12.

: Blu-ray
:
: M2TS
: MPEG-4 AVC Video / 1920x1080 / 35281 kbps / 23,976 fps / High Profile 4.1
1: LPCM Audio / 2.0 / 48 kHz / 2304 kbps / 24-bit
1: DTS-HD Master Audio / 5.1 / 48 kHz / 4719 kbps / 24-bit (DTS Core: 5.1 / 48 kHz / 1509 kbps / 24-bit)
2: Dolby Digital Audio / 2.0 / 48 kHz / 192 kbps
1: , (Castles In The Air) [ ]
2: , (On Your Mark) [-]

: Shinji Nakamoto .

( , .. ).
Disc Title: 1995 On Your MarkDisc Size: 2 727 767 544 bytesProtection: AACSBD-Java: NoBDInfo: 0.5.8

Notes:

BDINFO HOME: Cinema Squid http://www.cinemasquid.com/blu-ray/tools/bdinfo

INCLUDES FORUMS REPORT FOR: AVS Forum Blu-ray Audio and Video Specifications Thread http://www.avsforum.com/avs-vb/showthread.php?t=1155731

********************PLAYLIST: 00000.MPLS********************

<--- BEGIN FORUMS PASTE --->

Total Video
Title Codec Length Movie Size Disc Size Bitrate Bitrate Main Audio Track Secondary Audio Track
----- ------ ------- -------------- -------------- ------- ------- ------------------ ---------------------
00000.MPLS AVC 0:06:46 2276548608 2727767544 44,82 35,28 LPCM 2.0 2304Kbps (48kHz/24-bit) DTS-HD Master 5.1 4719Kbps (48kHz/24-bit)
DISC INFO:

Disc Title: 1995 On Your Mark
Disc Size: 2727767544 bytes
Protection: AACS
BD-Java: No
BDInfo: 0.5.8

PLAYLIST REPORT:

Name: 00000.MPLS
Length: 0:06:46.322 (h:m:s.ms)
Size: 2276548608 bytes
Total Bitrate: 44,82 Mbps

VIDEO:

Codec Bitrate Description
----- ------- -----------
MPEG-4 AVC Video 35281 kbps 1080p / 23,976 fps / 16:9 / High Profile 4.1

AUDIO:

Codec Language Bitrate Description
----- -------- ------- -----------
LPCM Audio Japanese 2304 kbps 2.0 / 48 kHz / 2304 kbps / 24-bit
DTS-HD Master Audio Japanese 4719 kbps 5.1 / 48 kHz / 4719 kbps / 24-bit (DTS Core: 5.1 / 48 kHz / 1509 kbps / 24-bit)
Dolby Digital Audio English 192 kbps 2.0 / 48 kHz / 192 kbps

SUBTITLES:

Codec Language Bitrate Description
----- -------- ------- -----------
Presentation Graphics English 16,954 kbps
Presentation Graphics Russian 48,933 kbps

FILES:

Name Time In Length Size Total Bitrate
---- ------- ------ ---- -------------
00000.M2TS 0:00:00.000 0:06:46.322 2276548608 44822

CHAPTERS:

Number Time In Length Avg Video Rate Max 1-Sec Rate Max 1-Sec Time Max 5-Sec Rate Max 5-Sec Time Max 10Sec Rate Max 10Sec Time Avg Frame Size Max Frame Size Max Frame Time
------ ------- ------ -------------- -------------- -------------- -------------- -------------- -------------- -------------- -------------- -------------- --------------
1 0:00:00.000 0:06:45.321 35368 kbps 64755 kbps 00:06:38.064 42666 kbps 00:06:34.060 40336 kbps 00:06:29.263 184375 bytes 781285 bytes 00:00:07.924
2 0:06:45.321 0:00:01.001 80 kbps 0 kbps 00:00:00.000 0 kbps 00:00:00.000 0 kbps 00:00:00.000 433 bytes 542 bytes 00:06:46.280

STREAM DIAGNOSTICS:

File PID Type Codec Language Seconds Bitrate Bytes Packets
---- --- ---- ----- -------- -------------- -------------- ------------- -----
00000.M2TS 4113 (0x1011) 0x1B AVC 406,197 35292 1791948308 9744519
00000.M2TS 4352 (0x1100) 0x80 LPCM jpn (Japanese) 406,197 2311 117346660 650120
00000.M2TS 4353 (0x1101) 0x86 DTS-HD MA jpn (Japanese) 406,197 4720 239662416 1366029
00000.M2TS 4354 (0x1102) 0x81 AC3 eng (English) 406,197 192 9752064 63490
00000.M2TS 4608 (0x1200) 0x90 PGS eng (English) 406,197 17 861090 5037
00000.M2TS 4609 (0x1201) 0x90 PGS rus (Russian) 406,197 49 2485302 14168
<pre>
<---- END FORUMS PASTE ---->

QUICK SUMMARY:

Disc Title: 1995 On Your MarkDisc Size: 2 727 767 544 bytesProtection: AACSBD-Java: NoPlaylist: 00000.MPLSSize: 2 276 548 608 bytesLength: 0:06:46.322Total Bitrate: 44,82 MbpsVideo: MPEG-4 AVC Video / 35281 kbps / 1080p / 23,976 fps / 16:9 / High Profile 4.1Audio: Japanese / LPCM Audio / 2.0 / 48 kHz / 2304 kbps / 24-bitAudio: Japanese / DTS-HD Master Audio / 5.1 / 48 kHz / 4719 kbps / 24-bit (DTS Core: 5.1 / 48 kHz / 1509 kbps / 24-bit)Audio: English / Dolby Digital Audio / 2.0 / 48 kHz / 192 kbpsSubtitle: English / 16,954 kbpsSubtitle: Russian / 48,933 kbps

********************PLAYLIST: 00001.MPLS********************

<--- BEGIN FORUMS PASTE --->
</pre>
Total Video
Title Codec Length Movie Size Disc Size Bitrate Bitrate Main Audio Track Secondary Audio Track
----- ------ ------- -------------- -------------- ------- ------- ------------------ ---------------------
00001.MPLS MPEG-2 0:06:37 401160192 2727767544 8,08 7,44 DD AC3 2.0 192Kbps
DISC INFO:

Disc Title: 1995 On Your Mark
Disc Size: 2727767544 bytes
Protection: AACS
BD-Java: No
BDInfo: 0.5.8

PLAYLIST REPORT:

Name: 00001.MPLS
Length: 0:06:37.096 (h:m:s.ms)
Size: 401160192 bytes
Total Bitrate: 8,08 Mbps

VIDEO:

Codec Bitrate Description
----- ------- -----------
MPEG-2 Video 7440 kbps 480i / 29,970 fps / 4:3

AUDIO:

Codec Language Bitrate Description
----- -------- ------- -----------
Dolby Digital Audio Japanese 192 kbps 2.0 / 48 kHz / 192 kbps / DN -4dB

FILES:

Name Time In Length Size Total Bitrate
---- ------- ------ ---- -------------
00001.M2TS 0:00:00.000 0:06:37.096 401160192 8082

CHAPTERS:

Number Time In Length Avg Video Rate Max 1-Sec Rate Max 1-Sec Time Max 5-Sec Rate Max 5-Sec Time Max 10Sec Rate Max 10Sec Time Avg Frame Size Max Frame Size Max Frame Time
------ ------- ------ -------------- -------------- -------------- -------------- -------------- -------------- -------------- -------------- -------------- --------------
1 0:00:00.000 0:06:37.096 7440 kbps 9496 kbps 00:04:56.596 8321 kbps 00:04:52.625 8194 kbps 00:00:43.309 31031 bytes 103536 bytes 00:05:16.716

STREAM DIAGNOSTICS:

File PID Type Codec Language Seconds Bitrate Bytes Packets
---- --- ---- ----- -------- -------------- -------------- ------------- -----
00001.M2TS 4113 (0x1011) 0x02 MPEG-2 396,963 7442 369298545 2014004
00001.M2TS 4352 (0x1100) 0x81 AC3 jpn (Japanese) 396,963 192 9530112 62045
<pre>
<---- END FORUMS PASTE ---->

QUICK SUMMARY:

Disc Title: 1995 On Your MarkDisc Size: 2 727 767 544 bytesProtection: AACSBD-Java: NoPlaylist: 00001.MPLSSize: 401 160 192 bytesLength: 0:06:37.096Total Bitrate: 8,08 MbpsVideo: MPEG-2 Video / 7440 kbps / 480i / 29,970 fps / 4:3Audio: Japanese / Dolby Digital Audio / 2.0 / 48 kHz / 192 kbps / DN -4dB

********************PLAYLIST: 00002.MPLS********************

<--- BEGIN FORUMS PASTE --->
</pre>
Total Video
Title Codec Length Movie Size Disc Size Bitrate Bitrate Main Audio Track Secondary Audio Track
----- ------ ------- -------------- -------------- ------- ------- ------------------ ---------------------
00002.MPLS AVC 0:01:02 41428992 2727767544 5,30 4,77 DD AC3 2.0 192Kbps
DISC INFO:

Disc Title: 1995 On Your Mark
Disc Size: 2727767544 bytes
Protection: AACS
BD-Java: No
BDInfo: 0.5.8

PLAYLIST REPORT:

Name: 00002.MPLS
Length: 0:01:02.562 (h:m:s.ms)
Size: 41428992 bytes
Total Bitrate: 5,30 Mbps

VIDEO:

Codec Bitrate Description
----- ------- -----------
MPEG-4 AVC Video 4773 kbps 1080p / 23,976 fps / 16:9 / High Profile 4.1

AUDIO:

Codec Language Bitrate Description
----- -------- ------- -----------
Dolby Digital Audio Japanese 192 kbps 2.0 / 48 kHz / 192 kbps

FILES:

Name Time In Length Size Total Bitrate
---- ------- ------ ---- -------------
00002.M2TS 0:00:00.000 0:00:31.030 28489728 7345
00003.M2TS 0:00:31.030 0:00:06.006 1271808 1694
00004.M2TS 0:00:37.037 0:00:18.518 10371072 4480
00005.M2TS 0:00:55.555 0:00:07.006 1296384 1480

CHAPTERS:

Number Time In Length Avg Video Rate Max 1-Sec Rate Max 1-Sec Time Max 5-Sec Rate Max 5-Sec Time Max 10Sec Rate Max 10Sec Time Avg Frame Size Max Frame Size Max Frame Time
------ ------- ------ -------------- -------------- -------------- -------------- -------------- -------------- -------------- -------------- -------------- --------------
1 0:00:00.000 0:00:30.029 6958 kbps 22800 kbps 00:00:28.403 9161 kbps 00:00:24.399 7969 kbps 00:00:19.394 36224 bytes 548225 bytes 00:00:10.510
2 0:00:30.029 0:00:06.006 1309 kbps 2505 kbps 00:00:34.492 1547 kbps 00:00:30.530 0 kbps 00:00:00.000 6823 bytes 150165 bytes 00:00:31.948
3 0:00:36.036 0:00:18.143 3944 kbps 11565 kbps 00:00:53.094 5103 kbps 00:00:37.495 4395 kbps 00:00:37.495 20560 bytes 243084 bytes 00:00:51.134
4 0:00:54.179 0:00:07.382 1373 kbps 2449 kbps 00:00:54.179 1485 kbps 00:00:56.055 0 kbps 00:00:00.000 7160 bytes 85800 bytes 00:00:54.262
5 0:01:01.561 0:00:01.000 114 kbps 0 kbps 00:00:00.000 0 kbps 00:00:00.000 0 kbps 00:00:00.000 618 bytes 839 bytes 00:01:01.728

STREAM DIAGNOSTICS:

File PID Type Codec Language Seconds Bitrate Bytes Packets
---- --- ---- ----- -------- -------------- -------------- ------------- -----
00002.M2TS 4113 (0x1011) 0x1B AVC 30,906 6764 26132013 142458
00002.M2TS 4352 (0x1100) 0x81 AC3 jpn (Japanese) 30,906 193 745728 4855
00003.M2TS 4113 (0x1011) 0x1B AVC 5,881 1335 981189 5466
00003.M2TS 4352 (0x1100) 0x81 AC3 jpn (Japanese) 5,881 196 144384 940
00004.M2TS 4113 (0x1011) 0x1B AVC 18,393 4020 9242960 50485
00004.M2TS 4352 (0x1100) 0x81 AC3 jpn (Japanese) 18,393 193 444672 2895
00005.M2TS 4113 (0x1011) 0x1B AVC 6,882 1127 969254 5391
00005.M2TS 4352 (0x1100) 0x81 AC3 jpn (Japanese) 6,882 196 168192 1095
<pre>
<---- END FORUMS PASTE ---->

QUICK SUMMARY:

Disc Title: 1995 On Your MarkDisc Size: 2 727 767 544 bytesProtection: AACSBD-Java: NoPlaylist: 00002.MPLSSize: 41 428 992 bytesLength: 0:01:02.562Total Bitrate: 5,30 MbpsVideo: MPEG-4 AVC Video / 4773 kbps / 1080p / 23,976 fps / 16:9 / High Profile 4.1Audio: Japanese / Dolby Digital Audio / 2.0 / 48 kHz / 192 kbps
</pre>
[url]...4945067[/url]
-
Blu-ray
GHIBLI GA IPPAI COLLECTION

1ST WAVE - 2010
07/14/2010 [url=...4629918] [/url] (1984)
12/22/2010 [url=...3690943] [/url] (1986)
12/22/2010 [url=...4119317] [/url] (1999)

2ND WAVE - 2011
06/17/2011 (2010)
07/20/2011 [url=...4178733]ظ [/url] (1995)

3RD WAVE - 2011
11/16/2011 [url=...3875703] [/url] (2004)
11/16/2011 [url=...4465304] [/url] (2006)
11/16/2011 [] (2008)

4TH WAVE - 2012
06/20/2012 (2011)
07/18/2012 [url=...4766434] [/url] (1988)
07/18/2012 [url=...4651642] [/url] (1988)

5TH WAVE - 2012
12/04/2012 [url=...4901371] [/url] (1989)
12/04/2012 (1991)

6TH WAVE - 2013
07/17/2013 (1992)
11/06/2013 [url=...4936128] [/url] (1994)

7TH WAVE - 2013
12/04/2013 [url=...4851914] [/url] (1997)
12/04/2013 (2002)

8TH WAVE - 2014
06/18/2014 (2013)
07/16/2014 (2001)
08/06/2014 III: [1080p] (1979)

9TH WAVE - 2014-2015
12/03/2014 (2013)
03/18/2015 (2014)

ORIGINAL BLU-RAY RELEASES

07/04/2007 [url=...2249223] [/url] (2007)
12/19/2007 [url=...4818346] : [/url] (2007)
07/03/2009 [url=...3692012] ""[/url] (2008)
11/17/2010 [Theatrical Feature] (2010)
07/02/2014 - [Complete Box Bonus Disc] (2013)
05/21/2014 [url=...4929876] [/url] (2014)
10/27/2014 [url=...4978082]On Your Mark[/url] (1995)

NON-GHIBLI BLU-RAY RELEASES

07/25/2008 [url=...4722800] [/url] (1981)
07/25/2008 [url=...4612785] [/url] (1984)
04/17/2012 ! (1972)


 ·  , , FAQ-
:  [ 04--2015 21:30 ]

  

.torrent

.torrent 16 KB


: 2.54 GB
(hash) : d357843d12ebdb4186ecdfa721b23e8bbad067a6
:
··
...

, ! On Your Mark

S L
| HD Rips ··  ! / On Your Mark [Special] [1 1] [ ] [JAP, SUB, ENG] [1995 ., , , BDRip] [1080p] Galfimbul 11065311151.03 GB 0 0 1434461624

16:33

16--15

| HD Rips ··  ! / On Your Mark [Movie] [ ] [JAP] [1995 ., , , BDRip] [1080p] Galfimbul 11065239341.03 GB 0 0 1424510408

12:20

21--15

! On Your Mark . !

!