Скачать через торрент Исчезновение Юки Нагато Nagato Yuki-chan no Shoshitsu бесплатно Аниме Все серии на русском torrent

Если у вас наблюдаются проблемы со скриншотами, переходом по ссылками, скачиванием торрентов - проблемы в блокировщике рекламы AdBlock. #хорошегоДня!


Статистика раздачи
Размер:  338 MB   |    Зарегистрирован:  2 года 8 месяцев   |    .torrent скачан:  32 раза   |   
Раздают:  1  
   
Загрузка...
 
Автор Сообщение

Galfimbul

avatar Galfimbul


Исчезновение Юки Нагато / Nagato Yuki-chan no Shoshitsu / The Vanishing of Nagato Yuki-chan / The Disappearance of Nagato Yuki-chan

Страна: Япония
Год выпуска: 2015 г.
Жанр: Романтика, комедия, школа, сэйнен
Тип: TV
Продолжительность: 16 эп., ~24 мин.
Режиссер: Jun'ichi Wada
Студия: Satelight

Описание: Исчезновение Юки Нагато (長門有希ちゃんの消失 Nagato Yuki-chan no Shōshitsu) - аниме-адаптация спин-офф манги Puyo: The Disappearance of Nagato Yuki-chan.
На экранах с 3 апреля 2015 года.

Сюжетная линия не связана с основным каноном Меланхолии Харухи Судзумии и разворачивается в альтернативной вселенной "Исчезновения Харухи Судзумии", где действие разворачивается вокруг застенчивого главы кружка литературы Юки Нагато.

Доп. информация: Буду обновлять торрент по мере перевода. Перевожу с английского, поэтому перевод будет только после выхода английских сабов. Рад любому фидбэку.

Качество: HDTVRip
Тип релиза: Без хардсаба
Формат видео: MP4
Наличие линковки: Нет
Релиз/Автор рипа: Leopard-Raws
Видео: AVC, 1280x720, 14,4 Mbps, 23,976 fps
Аудио: AAC, 229 kbps, 48000 Hz, 2ch Язык Японский
Субтитры: .ass, внешние Язык субтитров русский ; Перевод: CrazyRus29
ОбщееПолное имя : [Leopard-Raws] The Disappearance of Nagato Yuki-chan - 01 RAW (MX 1280x720 x264 AAC).mp4Формат : MPEG-4Профиль формата : Base MediaИдентификатор кодека : isomРазмер файла : 336 МбайтПродолжительность : 24 м.Режим общего битрейта : ПеременныйОбщий поток : 1917 Кбит/секДата кодирования : UTC 2015-04-03 20:54:56Дата пометки : UTC 2015-04-03 20:54:56

ВидеоИдентификатор : 1Формат : AVCФормат/Информация : Advanced Video CodecПрофиль формата : High@L4.1Параметр CABAC формата : ДаПараметр ReFrames формата : 4 кадраИдентификатор кодека : avc1Идентификатор кодека/Информация : Advanced Video CodingПродолжительность : 24 м.Битрейт : 1721 Кбит/секМаксимальный битрейт : 14,4 Мбит/секШирина : 1280 пикселейВысота : 720 пикселейСоотношение сторон : 16:9Режим частоты кадров : ПостоянныйЧастота кадров : 23,976 кадра/секЦветовое пространство : YUVСубдискретизация насыщенности : 4:2:0Битовая глубина : 8 битТип развёртки : ПрогрессивнаяБит/(Пиксели*Кадры) : 0.078Размер потока : 302 Мбайт (90%)Заголовок : 264:fps=23.976@GPAC0.5.1-DEV-rev4929Библиотека кодирования : x264 core 129 r2245+729M 1a52e03Настройки программы : cabac=1 / ref=4 / deblock=1:1:-1 / analyse=0x3:0x113 / me=umh / subme=9 / psy=1 / fade_compensate=0.00 / psy_rd=1.00:0.00 / mixed_ref=1 / me_range=24 / chroma_me=1 / trellis=2 / 8x8dct=1 / cqm=0 / deadzone=21,11 / fast_pskip=1 / chroma_qp_offset=-2 / threads=8 / lookahead_threads=1 / sliced_threads=0 / nr=0 / decimate=1 / interlaced=0 / bluray_compat=0 / constrained_intra=0 / fgo=0 / bframes=9 / b_pyramid=2 / b_adapt=2 / b_bias=0 / direct=1 / weightb=1 / open_gop=0 / weightp=2 / keyint=240 / keyint_min=24 / scenecut=40 / intra_refresh=0 / rc=crf / mbtree=0 / crf=18.0 / qcomp=0.72 / qpmin=0 / qpmax=69 / qpstep=4 / ip_ratio=1.40 / pb_ratio=1.30 / aq=1:0.85Дата кодирования : UTC 2015-04-03 20:54:56Дата пометки : UTC 2015-04-03 20:55:00Основные цвета : BT.709Характеристики трансфера : BT.709Коэффициенты матрицы : BT.709colour_range : Limited

АудиоИдентификатор : 2Формат : AACФормат/Информация : Advanced Audio CodecПрофиль формата : LCИдентификатор кодека : 40Продолжительность : 24 м.Вид битрейта : ПеременныйБитрейт : 192 Кбит/секМаксимальный битрейт : 229 Кбит/секКаналы : 2 каналаРасположение каналов : Front: L RЧастота : 48,0 КГцМетод сжатия : С потерямиРазмер потока : 33,6 Мбайт (10%)Язык : JapaneseДата кодирования : UTC 2015-04-03 18:06:42Дата пометки : UTC 2015-04-03 20:55:00
1. "Precious Place"


Трекер:  [ 06-Апр-2015 05:00 ]

  

Скачать .torrent

Размер .torrent файла 14 KB


Размер: 338 MB
Хэш (hash) релиза: b74e6184930b39c966de6680925d1508010272d4
Подписка на обновления:

Еще никто не оставлял запись к записи скачать торрент Исчезновение Юки Нагато Nagato Yuki-chan no Shoshitsu . Будь первым!

!Обратная связь