Скачать через торрент Сказание об Арслане Сказание об Аслане бесплатно Аниме Все серии на русском torrent

Если у вас наблюдаются проблемы со скриншотами, переходом по ссылками, скачиванием торрентов - проблемы в блокировщике рекламы AdBlock. #хорошегоДня!


Статистика раздачи
Размер:  736 MB   |    Зарегистрирован:  2 года 8 месяцев   |    .torrent скачан:  39 раз   |   
Раздают:  1  
   
Загрузка...
 
Автор Сообщение

Galfimbul

avatar Galfimbul


Сказание об Арслане / Сказание об Аслане / Arslan Senki
Страна: Япония
Год выпуска: 2015 г.
Жанр: приключения, фэнтези
Тип: TV
Продолжительность: >13 эп. по 25 мин
Режиссер: Абэ Нориюки
Студия: Liden Films & Sanzigen
Описание: Процветающий город Экбатана, стоящий на сухопутных торговых путях, был столицей великой империи, чья армия раз за разом отражала атаки соседей и защищала ее народ и богатства. Юного принца Аслана с младых ногтей готовили к роли нового правителя, однако завоевывать сердца окружающих у него, выросшего в тени безжалостного отца и отстраненной матери, получалось намного лучше, чем постигать военное искусство.

Когда Аслану исполнилось четырнадцать лет, он принял участие в первом военном походе, который обернулся катастрофой – его отца предали, и армия, которую вел Аслан, попала в ловушку врага. Спасенный бесстрашным воином и преданным другом, Аслан начал путешествие, которое должно было сделать его настоящим королем – великим, решительным и справедливым. Ведь у принца, мало оправдывающего ожидания родителей, было то, чего лишены многие правители: доброе сердце и открытый разум, позволяющие преодолеть силу традиций и старые предрассудки, чтобы увидеть большой и многообразный мир таким, каков он есть.
Качество: HDTVRip
Тип релиза: Без хардсаба
Формат видео: mp4
Релиз/Автор рипа: Ohys-Raws
Видео: H264, 1819 Kbps, 1280x720, 23.976 fps, 8 bit
Аудио: JAP, AAC, 206 kbps, 48000 Hz, 2ch

Субтитры: ASS, внешние; Язык субтитров русский;
L Перевод: Эш Блэйк Редактор: Говорящий попугай Тайм-код: Mojoo
GeneralComplete name : B:\[Ohys-Raws] Arslan Senki - 01 (TBS 1280x720 x264 AAC).mp4Format : MPEG-4Format profile : Base MediaCodec ID : isomFile size : 355 MiBDuration : 24mn 30sOverall bit rate mode : VariableOverall bit rate : 2 028 KbpsEncoded date : UTC 2015-04-05 09:03:12Tagged date : UTC 2015-04-05 09:03:12

VideoID : 1Format : AVCFormat/Info : Advanced Video CodecFormat profile : Main@L4.1Format settings, CABAC : YesFormat settings, ReFrames : 4 framesCodec ID : avc1Codec ID/Info : Advanced Video CodingDuration : 24mn 29sBit rate : 1 819 KbpsMaximum bit rate : 13.2 MbpsWidth : 1 280 pixelsHeight : 720 pixelsDisplay aspect ratio : 16:9Frame rate mode : ConstantFrame rate : 23.976 fpsColor space : YUVChroma subsampling : 4:2:0Bit depth : 8 bitsScan type : ProgressiveBits/(Pixel*Frame) : 0.082Stream size : 319 MiB (90%)Writing library : x264 core 146 r2538 121396cEncoding settings : cabac=1 / ref=3 / deblock=1:0:0 / analyse=0x1:0x111 / me=hex / subme=7 / psy=1 / psy_rd=1.00:0.00 / mixed_ref=1 / me_range=16 / chroma_me=1 / trellis=1 / 8x8dct=0 / cqm=0 / deadzone=21,11 / fast_pskip=0 / chroma_qp_offset=-2 / threads=12 / lookahead_threads=2 / sliced_threads=0 / nr=0 / decimate=0 / interlaced=0 / bluray_compat=0 / constrained_intra=0 / bframes=3 / b_pyramid=2 / b_adapt=1 / b_bias=0 / direct=1 / weightb=1 / open_gop=0 / weightp=2 / keyint=240 / keyint_min=1 / scenecut=40 / intra_refresh=0 / rc_lookahead=40 / rc=crf / mbtree=1 / crf=20.0 / qcomp=0.60 / qpmin=10 / qpmax=26 / qpstep=8 / ip_ratio=1.40 / aq=1:1.00Encoded date : UTC 2015-04-05 09:02:57Tagged date : UTC 2015-04-05 09:03:13Color primaries : BT.709Transfer characteristics : BT.709Matrix coefficients : BT.709Color range : Limited

AudioID : 2Format : AACFormat/Info : Advanced Audio CodecFormat profile : LCCodec ID : 40Duration : 24mn 30sBit rate mode : VariableBit rate : 206 KbpsMaximum bit rate : 247 KbpsChannel(s) : 2 channelsChannel positions : Front: L RSampling rate : 48.0 KHzCompression mode : LossyStream size : 36.1 MiB (10%)Language : JapaneseEncoded date : UTC 2015-04-05 08:53:40Tagged date : UTC 2015-04-05 09:03:13
01 - The Glory of Ecbatana
02 - Age Fourteen, Maiden Battle
03 - The Knight in Black


Трекер:  [ 12-Апр-2015 18:30 ]

  

Скачать .torrent

Размер .torrent файла 15 KB


Размер: 736 MB
Хэш (hash) релиза: b86f2f825134af1ccf52843453e4adb9e4cbd585
Подписка на обновления:

Еще никто не оставлял запись к записи скачать торрент Сказание об Арслане Сказание об Аслане . Будь первым!

!Обратная связь