Скачать через торрент музыку Свинг Swing бесплатно без регистрации torrent

Если у вас наблюдаются проблемы со скриншотами, переходом по ссылками, скачиванием торрентов - проблемы в блокировщике рекламы AdBlock. #хорошегоДня!


Статистика раздачи
Размер:  313 MB   |    Зарегистрирован:  2 года 8 месяцев   |    .torrent скачан:  59 раз   |   
Раздают:  1  
   
Загрузка...
 
Автор Сообщение

Galfimbul

avatar Galfimbul


Свинг / Swing

Жанр: Soundtrack
Композитор: Tony Gatlif
Год выпуска диска: 2002
Страна-производитель диска: Германия
Издатель (лейбл): Warner Music Manufacturing Europe
Номер по каталогу: 0827 44936 2
Аудиокодек: FLAC (*.flac)
Тип рипа: tracks+.cue
Битрейт аудио: lossless
Продолжительность: 00:50:31
Источник: собственный рип
Наличие сканов в содержимом раздачи: нет
Треклист:
01. Tchavolo Schmitt & Mandino Reinhardt - Mire pral
02. Tchavolo Schmitt & Mandino Reinhardt - Les yeux noirs
03. Tchavalo Schmitt - Arc en ciel
04. Tchavolo Schmitt & Mandino Reinhardt - Paprika
05. Tchavolo Schmitt & Mandino Reinhardt - Tajsa ne boudo
06. Katica Illenyi - Romania
07. Tchavalo Schmitt - Le vent
08. Ben Zmet & Tchavalo Schmitt - Le juif, l'arabe et le manouche
09. Tchavalo Schmitt - Orient de swing
10. Helene Mershstein & Tchavalo Schmitt - La valse de puri dai
11. Tony Gatlif - Barbeles
12. Tchavalo Schmitt - Reve de swing
13. Marine Goldwaser - Dumbala laika
14. Hayet Ayad, Monica Juhasz-Mitzura, Katica Illenyi - Le chant de la paix
15. Hayet Ayad - La berceuse
16. Tchavolo Schmitt & Mandino Reinhardt - Hasta la vista
Exact Audio Copy V1.0 beta 3 from 29. August 2011

Отчёт EAC об извлечении, выполненном 10. апреля 2015, 10:29

Various artists / B.O.F. Swing

Дисковод: HL-DT-STDVDRAM GSA-H12N Adapter: 0 ID: 0

Режим чтения : ДостоверностьИспользование точного потока : ДаОтключение кэша аудио : ДаИспользование указателей C2 : Нет

Коррекция смещения при чтении : 667Способность читать области Lead-in и Lead-out : НетЗаполнение пропущенных сэмплов тишиной : ДаУдаление блоков с тишиной в начале и конце : НетПри вычислениях CRC использовались нулевые сэмплы : ДаИнтерфейс : Встроенный Win32-интерфейс для Win NT/2000Обработка зазоров : Добавлено к предыдущему треку

Выходной формат : Пользовательский кодировщикВыбранный битрейт : 896 kBit/sКачество : ВысокийДобавление ID3-тега : НетУтилита сжатия : C:\Program Files\Exact Audio Copy\Flac\flac.exeДополнительные параметры : -V -8 -T "Genre=%genre%" -T "Artist=%artist%" -T "Title=%title%" -T "Album=%albumtitle%" -T "Date=%year%" -T "Tracknumber=%tracknr%" -T "Comment=%comment%" %source%

TOC извлечённого CD

Трек | Старт | Длительность | Начальный сектор | Конечный сектор --------------------------------------------------------------------- 1 | 0:00.00 | 2:42.02 | 0 | 12151 2 | 2:42.02 | 3:36.49 | 12152 | 28400 3 | 6:18.51 | 3:50.04 | 28401 | 45654 4 | 10:08.55 | 3:06.61 | 45655 | 59665 5 | 13:15.41 | 2:32.43 | 59666 | 71108 6 | 15:48.09 | 5:09.07 | 71109 | 94290 7 | 20:57.16 | 1:10.26 | 94291 | 99566 8 | 22:07.42 | 3:34.46 | 99567 | 115662 9 | 25:42.13 | 3:29.22 | 115663 | 131359 10 | 29:11.35 | 3:32.70 | 131360 | 147329 11 | 32:44.30 | 1:09.34 | 147330 | 152538 12 | 33:53.64 | 1:48.30 | 152539 | 160668 13 | 35:42.19 | 1:37.36 | 160669 | 167979 14 | 37:19.55 | 5:07.51 | 167980 | 191055 15 | 42:27.31 | 3:34.12 | 191056 | 207117 16 | 46:01.43 | 4:29.36 | 207118 | 227328

Трек 1

Имя файла D:\AUDIO\TONY GATLIF\B.O.F. Swing - 2002 [FLAC]\01. Tchavolo Schmitt & Mandino Reinhardt - Mire pral.wav

Длина предзазора 0:00:02.00

Пиковый уровень 100.0 % Скорость извлечения 2.1 X Качество трека 99.9 % CRC теста 1642E7DB CRC копии 1642E7DB Точное извлечение (достоверность 3) [3FBB2CC2] (AR v2) Копирование... OK

Трек 2

Имя файла D:\AUDIO\TONY GATLIF\B.O.F. Swing - 2002 [FLAC]\02. Tchavolo Schmitt & Mandino Reinhardt - Les yeux noirs.wav

Длина предзазора 0:00:00.04

Пиковый уровень 100.0 % Скорость извлечения 2.9 X Качество трека 100.0 % CRC теста 82321085 CRC копии 82321085 Точное извлечение (достоверность 3) [48A70186] (AR v2) Копирование... OK

Трек 3

Имя файла D:\AUDIO\TONY GATLIF\B.O.F. Swing - 2002 [FLAC]\03. Tchavalo Schmitt - Arc en ciel.wav

Пиковый уровень 100.0 % Скорость извлечения 2.8 X Качество трека 99.9 % CRC теста DA3DE5A8 CRC копии DA3DE5A8 Точное извлечение (достоверность 3) [621AB802] (AR v2) Копирование... OK

Трек 4

Имя файла D:\AUDIO\TONY GATLIF\B.O.F. Swing - 2002 [FLAC]\04. Tchavolo Schmitt & Mandino Reinhardt - Paprika.wav

Пиковый уровень 100.0 % Скорость извлечения 3.3 X Качество трека 100.0 % CRC теста 8141F1EB CRC копии 8141F1EB Точное извлечение (достоверность 3) [828ED892] (AR v2) Копирование... OK

Трек 5

Имя файла D:\AUDIO\TONY GATLIF\B.O.F. Swing - 2002 [FLAC]\05. Tchavolo Schmitt & Mandino Reinhardt - Tajsa ne boudo.wav

Длина предзазора 0:00:01.04

Пиковый уровень 100.0 % Скорость извлечения 3.3 X Качество трека 100.0 % CRC теста 0A1E4535 CRC копии 0A1E4535 Точное извлечение (достоверность 3) [A200FDA6] (AR v2) Копирование... OK

Трек 6

Имя файла D:\AUDIO\TONY GATLIF\B.O.F. Swing - 2002 [FLAC]\06. Katica Illenyi - Romania.wav

Пиковый уровень 100.0 % Скорость извлечения 3.6 X Качество трека 99.9 % CRC теста 2A43DA18 CRC копии 2A43DA18 Точное извлечение (достоверность 3) [723A54A2] (AR v2) Копирование... OK

Трек 7

Имя файла D:\AUDIO\TONY GATLIF\B.O.F. Swing - 2002 [FLAC]\07. Tchavalo Schmitt - Le vent.wav

Пиковый уровень 100.0 % Скорость извлечения 2.1 X Качество трека 99.8 % CRC теста 0622859C CRC копии 0622859C Точное извлечение (достоверность 3) [F78331D4] (AR v2) Копирование... OK

Трек 8

Имя файла D:\AUDIO\TONY GATLIF\B.O.F. Swing - 2002 [FLAC]\08. Ben Zmet & Tchavalo Schmitt - Le juif, l'arabe et le manouche.wav

Пиковый уровень 100.0 % Скорость извлечения 4.0 X Качество трека 100.0 % CRC теста 16C7A7AF CRC копии 16C7A7AF Точное извлечение (достоверность 3) [A35B2345] (AR v2) Копирование... OK

Трек 9

Имя файла D:\AUDIO\TONY GATLIF\B.O.F. Swing - 2002 [FLAC]\09. Tchavalo Schmitt - Orient de swing.wav

Пиковый уровень 100.0 % Скорость извлечения 4.1 X Качество трека 100.0 % CRC теста 7DB3B0C7 CRC копии 7DB3B0C7 Точное извлечение (достоверность 3) [D9C3B37A] (AR v2) Копирование... OK

Трек 10

Имя файла D:\AUDIO\TONY GATLIF\B.O.F. Swing - 2002 [FLAC]\10. Helene Mershstein & Tchavalo Schmitt - La valse de puri dai.wav

Длина предзазора 0:00:00.32

Пиковый уровень 100.0 % Скорость извлечения 4.1 X Качество трека 100.0 % CRC теста 1B511EF6 CRC копии 1B511EF6 Точное извлечение (достоверность 3) [AAC77002] (AR v2) Копирование... OK

Трек 11

Имя файла D:\AUDIO\TONY GATLIF\B.O.F. Swing - 2002 [FLAC]\11. Tony Gatlif - Barbeles.wav

Пиковый уровень 100.0 % Скорость извлечения 3.4 X Качество трека 100.0 % CRC теста DD570385 CRC копии DD570385 Точное извлечение (достоверность 3) [A19DE490] (AR v2) Копирование... OK

Трек 12

Имя файла D:\AUDIO\TONY GATLIF\B.O.F. Swing - 2002 [FLAC]\12. Tchavalo Schmitt - Reve de swing.wav

Длина предзазора 0:00:00.52

Пиковый уровень 95.4 % Скорость извлечения 3.7 X Качество трека 100.0 % CRC теста 66C80AEC CRC копии 66C80AEC Точное извлечение (достоверность 3) [1AEFE955] (AR v2) Копирование... OK

Трек 13

Имя файла D:\AUDIO\TONY GATLIF\B.O.F. Swing - 2002 [FLAC]\13. Marine Goldwaser - Dumbala laika.wav

Длина предзазора 0:00:01.73

Пиковый уровень 80.4 % Скорость извлечения 3.7 X Качество трека 100.0 % CRC теста DE4ED908 CRC копии DE4ED908 Точное извлечение (достоверность 3) [2552B789] (AR v2) Копирование... OK

Трек 14

Имя файла D:\AUDIO\TONY GATLIF\B.O.F. Swing - 2002 [FLAC]\14. Hayet Ayad, Monica Juhasz-Mitzura, Katica Illenyi - Le chant de la paix.wav

Длина предзазора 0:00:02.38

Пиковый уровень 100.0 % Скорость извлечения 4.9 X Качество трека 100.0 % CRC теста 84B12F9F CRC копии 84B12F9F Точное извлечение (достоверность 3) [6DE7AC9A] (AR v2) Копирование... OK

Трек 15

Имя файла D:\AUDIO\TONY GATLIF\B.O.F. Swing - 2002 [FLAC]\15. Hayet Ayad - La berceuse.wav

Длина предзазора 0:00:01.20

Пиковый уровень 84.1 % Скорость извлечения 4.8 X Качество трека 100.0 % CRC теста 0D86848C CRC копии 0D86848C Точное извлечение (достоверность 3) [5A4CC7DF] (AR v2) Копирование... OK

Трек 16

Имя файла D:\AUDIO\TONY GATLIF\B.O.F. Swing - 2002 [FLAC]\16. Tchavolo Schmitt & Mandino Reinhardt - Hasta la vista.wav

Пиковый уровень 100.0 % Скорость извлечения 5.3 X Качество трека 100.0 % CRC теста 60BD4D4E CRC копии 60BD4D4E Точное извлечение (достоверность 3) [E47B68E4] (AR v2) Копирование... OK

Все треки извлечены точно

Ошибок не произошло

Конец отчёта

==== Контрольная сумма отчёта B88CE4A78FC047A300ADC13BC32D582171B64CF1550E7255621B2032CB516527 ====
REM GENRE SoundtrackREM DATE 2002REM DISCID DC0BD710REM COMMENT "ExactAudioCopy v1.0b3"PERFORMER "Various artists"TITLE "B.O.F. Swing"FILE "01. Tchavolo Schmitt & Mandino Reinhardt - Mire pral.wav" WAVE TRACK 01 AUDIO TITLE "Mire pral" PERFORMER "Tchavolo Schmitt & Mandino Reinhardt" ISRC FRZ040100248 INDEX 01 00:00:00 TRACK 02 AUDIO TITLE "Les yeux noirs" PERFORMER "Tchavolo Schmitt & Mandino Reinhardt" ISRC FRZ040100253 INDEX 00 02:41:73FILE "02. Tchavolo Schmitt & Mandino Reinhardt - Les yeux noirs.wav" WAVE INDEX 01 00:00:00FILE "03. Tchavalo Schmitt - Arc en ciel.wav" WAVE TRACK 03 AUDIO TITLE "Arc en ciel" PERFORMER "Tchavalo Schmitt" ISRC FRZ040100249 INDEX 01 00:00:00FILE "04. Tchavolo Schmitt & Mandino Reinhardt - Paprika.wav" WAVE TRACK 04 AUDIO TITLE "Paprika" PERFORMER "Tchavolo Schmitt & Mandino Reinhardt" ISRC FRZ040100251 INDEX 01 00:00:00 TRACK 05 AUDIO TITLE "Tajsa ne boudo" PERFORMER "Tchavolo Schmitt & Mandino Reinhardt" ISRC FRZ040100259 INDEX 00 03:05:57FILE "05. Tchavolo Schmitt & Mandino Reinhardt - Tajsa ne boudo.wav" WAVE INDEX 01 00:00:00FILE "06. Katica Illenyi - Romania.wav" WAVE TRACK 06 AUDIO TITLE "Romania" PERFORMER "Katica Illenyi" ISRC FRZ040100255 INDEX 01 00:00:00FILE "07. Tchavalo Schmitt - Le vent.wav" WAVE TRACK 07 AUDIO TITLE "Le vent" PERFORMER "Tchavalo Schmitt" ISRC FRZ040100261 INDEX 01 00:00:00FILE "08. Ben Zmet & Tchavalo Schmitt - Le juif, l'arabe et le manouche.wav" WAVE TRACK 08 AUDIO TITLE "Le juif, l'arabe et le manouche" PERFORMER "Ben Zmet & Tchavalo Schmitt" ISRC FRZ040100262 INDEX 01 00:00:00FILE "09. Tchavalo Schmitt - Orient de swing.wav" WAVE TRACK 09 AUDIO TITLE "Orient de swing" PERFORMER "Tchavalo Schmitt" ISRC FRZ040100263 INDEX 01 00:00:00 TRACK 10 AUDIO TITLE "La valse de puri dai" PERFORMER "Helene Mershstein & Tchavalo Schmitt" ISRC FRZ040100254 INDEX 00 03:28:65FILE "10. Helene Mershstein & Tchavalo Schmitt - La valse de puri dai.wav" WAVE INDEX 01 00:00:00FILE "11. Tony Gatlif - Barbeles.wav" WAVE TRACK 11 AUDIO TITLE "Barbeles" PERFORMER "Tony Gatlif " ISRC FRZ040100264 INDEX 01 00:00:00 TRACK 12 AUDIO TITLE "Reve de swing" PERFORMER "Tchavalo Schmitt" ISRC FRZ040100250 INDEX 00 01:08:57FILE "12. Tchavalo Schmitt - Reve de swing.wav" WAVE INDEX 01 00:00:00 TRACK 13 AUDIO TITLE "Dumbala laika" PERFORMER "Marine Goldwaser" ISRC FRZ040100256 INDEX 00 01:46:32FILE "13. Marine Goldwaser - Dumbala laika.wav" WAVE INDEX 01 00:00:00 TRACK 14 AUDIO TITLE "Le chant de la paix" PERFORMER "Hayet Ayad, Monica Juhasz-Mitzura, Katica Illenyi" ISRC FRZ040100257 INDEX 00 01:34:73FILE "14. Hayet Ayad, Monica Juhasz-Mitzura, Katica Illenyi - Le chant de la paix.wav" WAVE INDEX 01 00:00:00 TRACK 15 AUDIO TITLE "La berceuse" PERFORMER "Hayet Ayad" ISRC FRZ040100258 INDEX 00 05:06:31FILE "15. Hayet Ayad - La berceuse.wav" WAVE INDEX 01 00:00:00FILE "16. Tchavolo Schmitt & Mandino Reinhardt - Hasta la vista.wav" WAVE TRACK 16 AUDIO TITLE "Hasta la vista" PERFORMER "Tchavolo Schmitt & Mandino Reinhardt" ISRC FRZ040100252 INDEX 01 00:00:00

[url=...4195417]ФИЛЬМОГРАФИЯ ТОНИ ГАТЛИФА НА RUTRACKER.ORG[/url]


Трекер:  [ 12-Апр-2015 20:00 ]

  

Скачать .torrent

Размер .torrent файла 14 KB


Размер: 313 MB
Хэш (hash) релиза: 80c77509f036b260f3b7a8f08a7e1fea738c9097

Торренты, похожие на Свинг Swing скачать торрент

Форум Название Автор Размер S L Добавлен
Саундтреки к фильмам и мультфильмам (lossless) ·· (Soundtrack) Свинг / Swing (Original Motion Picture Soundtrack) (Lisa Stansfield) - 1999, FLAC (tracks+.cue), lossless Galfimbul 266510181254 MB 0 0 1456570703

13:58

27-Фев-16

Еще никто не оставлял запись к записи скачать торрент Свинг Swing . Будь первым!

!Обратная связь