Скачать через торрент Рок-Шоу!! Show by Rock!! бесплатно Аниме Все серии на русском torrent

Если у вас наблюдаются проблемы со скриншотами, переходом по ссылками, скачиванием торрентов - проблемы в блокировщике рекламы AdBlock. #хорошегоДня!


Статистика раздачи
Размер:  1.77 GB   |    Зарегистрирован:  2 года 7 месяцев   |    .torrent скачан:  126 раз   |   
Раздают:  1  
   
Загрузка...
 
Автор Сообщение

Galfimbul

avatar Galfimbul


Рок-Шоу!! / Show by Rock!!

Страна: Япония
Год выпуска: 2015 г.
Жанр: приключения, музыкальный
Тип: TV
Продолжительность: 13 серий по 24 мин.
Режиссер: Икэдзоэ Такахиро
Студия: Bones

Описание: Сюжет аниме повествует о школьнице Циан которая обожает музыку и хочет вступить в школьную группу. Однако, из-за чрезвычайной стеснительности она никак не может решиться на это. Однажды ее затягивает внутрь видеоигры и она оказывается в городе музыки, Миди-сити. Там она оказывается в центре сражения с черным монстром, для победы над которым ей приходится сыграть на легендарной гитаре Земляничное Сердце. После победы над монстром талант Циан замечает одно из музыкальных агенств и она присоединяется к группе Плазмагика. Вместе со своей группой Циан старается стать лучшей группой в Миди-сити, раскрывает секреты легендарных инструментов и ищет способ вернуться назад, в свой мир.

Качество: HDTVRip
Тип релиза: Без хардсаба
Формат видео: MKV
Наличие линковки: Нет
Релиз/Автор рипа: Leopard-Raws
Видео: x264, 1280x720, 2 034 (kbps), 23.976 (fps), 8 bits
Аудио: AAC, 192 kbps, 48000 Hz, 2ch Язык Японский
Субтитры: ASS, внешние Язык субтитров русский
Редактор/Оформление: Aoki Star
Переводчик: MAD Naamah
Тайм-код: Mojoo
GeneralComplete name : B:\Anime\[HorribleSubs] Show By Rock!!\[Leopard-Raws] Show by Rock!! - 05 RAW (MX 1280x720 x264 AAC).mp4Format : MPEG-4Format profile : Base MediaCodec ID : isomFile size : 383 MiBDuration : 23mn 59sOverall bit rate mode : VariableOverall bit rate : 2 230 KbpsEncoded date : UTC 2015-05-03 16:52:42Tagged date : UTC 2015-05-03 16:52:42

VideoID : 1Format : AVCFormat/Info : Advanced Video CodecFormat profile : High@L4.1Format settings, CABAC : YesFormat settings, ReFrames : 4 framesCodec ID : avc1Codec ID/Info : Advanced Video CodingDuration : 23mn 59sBit rate : 2 034 KbpsMaximum bit rate : 24.2 MbpsWidth : 1 280 pixelsHeight : 720 pixelsDisplay aspect ratio : 16:9Frame rate mode : ConstantFrame rate : 23.976 fpsColor space : YUVChroma subsampling : 4:2:0Bit depth : 8 bitsScan type : ProgressiveBits/(Pixel*Frame) : 0.092Stream size : 349 MiB (91%)Title : 264:fps=23.976@GPAC0.5.1-DEV-rev4929Writing library : x264 core 129 r2245+729M 1a52e03Encoding settings : cabac=1 / ref=4 / deblock=1:1:-1 / analyse=0x3:0x113 / me=umh / subme=9 / psy=1 / fade_compensate=0.00 / psy_rd=1.00:0.00 / mixed_ref=1 / me_range=24 / chroma_me=1 / trellis=2 / 8x8dct=1 / cqm=0 / deadzone=21,11 / fast_pskip=1 / chroma_qp_offset=-2 / threads=8 / lookahead_threads=1 / sliced_threads=0 / nr=0 / decimate=1 / interlaced=0 / bluray_compat=0 / constrained_intra=0 / fgo=0 / bframes=9 / b_pyramid=2 / b_adapt=2 / b_bias=0 / direct=1 / weightb=1 / open_gop=0 / weightp=2 / keyint=240 / keyint_min=24 / scenecut=40 / intra_refresh=0 / rc=crf / mbtree=0 / crf=19.0 / qcomp=0.72 / qpmin=0 / qpmax=69 / qpstep=4 / ip_ratio=1.40 / pb_ratio=1.30 / aq=1:0.85Encoded date : UTC 2015-05-03 16:52:42Tagged date : UTC 2015-05-03 16:52:53Color primaries : BT.709Transfer characteristics : BT.709Matrix coefficients : BT.709

AudioID : 2Format : AACFormat/Info : Advanced Audio CodecFormat profile : LCCodec ID : 40Duration : 23mn 59sBit rate mode : VariableBit rate : 192 KbpsMaximum bit rate : 222 KbpsChannel(s) : 2 channelsChannel positions : Front: L RSampling rate : 48.0 KHzCompression mode : LossyStream size : 32.9 MiB (9%)Language : JapaneseEncoded date : UTC 2015-05-03 15:24:36Tagged date : UTC 2015-05-03 16:52:53
1 "Have a nice MUSIC!!" April 5, 2015
2 "With our Crimson Gaze.. (etc)"
3 "Yes! Idol ♡ Declaration"
4 "Enchanting Dream Fireworks of a Night Journey"


Трекер:  [ 07-Май-2015 00:30 ]

  

Скачать .torrent

Размер .torrent файла 3 KB


Размер: 1.77 GB
Хэш (hash) релиза: 6e91b487dfb9f3bef3752e7a4ef6272f55ae2d44
Подписка на обновления:

Торренты, похожие на Рок-Шоу!! Show by Rock!! скачать торрент

Форум Название Автор Размер S L Добавлен
Аниме | Rips ·· Рок-Шоу!! / Show by Rock!! / Шоу Рока [TV] [01 из >12] [Без хардсаба] [RUS(int), JAP] [2015 г., приключения, музыкальный, HDTVRip] [720p] Galfimbul 676695264645 MB 0 0 1428835564

13:46

12-Апр-15

Аниме | HD Rips ·· Рок-Шоу!! / Show by Rock!! [TV] [12 из 12] [Без хардсаба] [JAP] [2015 г., комедия, приключения, музыкальный, BDRemux] [1080p] Galfimbul 9346442312587.05 GB 0 0 1476444686

14:31

14-Окт-16

Аниме | Rips ·· Рок-Шоу!!# / Шоу Рока!!# / Show by Rock!!# [TV] [12 из 12] [Без хардсаба] [RUS(ext), JAP] & [01-02, 10-12 из 12] [SUB] [2016, Приключения, Музыкальный, Комедия, HDTVRip] [720p] Galfimbul 64447792856 GB 0 0 1482781391

22:43

26-Дек-16

Аниме | Rips ·· Рок-Шоу!!# / Шоу Рока!!# / Show by Rock!!# [TV] [12 из 12] [Без хардсаба] [RUS(ext), JAP] & [01-02, 10-12 из 12] [SUB] [2016, Приключения, Музыкальный, Комедия, HDTVRip] [720p] Galfimbul 64447792856 GB 0 0 1482759166

16:32

26-Дек-16

Аниме | Rips ·· Рок-Шоу!!# / Шоу Рока!!# / Show by Rock!!# [TV] [01-11 из 12] [Без хардсаба] [RUS(ext), JAP] & [01-02 из 12] [SUB] [2016, Приключения, Музыкальный, Комедия, HDTVRip] [720p] Galfimbul 57649362385.37 GB 0 0 1481746224

23:10

14-Дек-16

Аниме | Rips ·· Рок-Шоу!!# / Шоу Рока!!# / Show by Rock!!# [TV] [01-09 из 12] [Без хардсаба] [RUS(ext), JAP] & [01-02 из 12] [SUB] [2016, Приключения, Музыкальный, Комедия, HDTVRip] [720p] Galfimbul 46422212284.32 GB 0 0 1480795420

23:03

3-Дек-16

Аниме | Rips ·· Рок-Шоу!!# / Шоу Рока!!# / Show by Rock!!# [TV] [01-08 из 12] [Без хардсаба] [RUS(ext), JAP] & [01-02 из 12] [SUB] [2016, Приключения, Музыкальный, Комедия, HDTVRip] [720p] Galfimbul 41192798733.84 GB 0 0 1480686255

16:44

2-Дек-16

Аниме | Rips ·· Рок-Шоу!!# / Шоу Рока!!# / Show by Rock!!# [TV] [01-07 из 12] [Без хардсаба] [RUS(ext), JAP] & [01-02 из 12] [SUB] [2016, Приключения, Музыкальный, Комедия, HDTVRip] [720p] Galfimbul 36538905353.4 GB 0 0 1479436196

05:29

18-Ноя-16

Аниме | Rips ·· Рок-Шоу!!# / Шоу Рока!!# / Show by Rock!!# [TV] [01-06 из 12] [Без хардсаба] [RUS(ext), JAP] & [01-02 из 12] [SUB] [2016, Приключения, Музыкальный, Комедия, HDTVRip] [720p] Galfimbul 31903401172.97 GB 0 0 1479044080

16:34

13-Ноя-16

Аниме | Rips ·· Рок-Шоу!!# / Шоу Рока!!# / Show by Rock!!# [TV] [01-05 из 12] [Без хардсаба] [RUS(ext), JAP] & [01-02 из 12] [SUB] [2016, Приключения, Музыкальный, Комедия, HDTVRip] [720p] Galfimbul 27182566382.53 GB 0 0 1478051978

04:59

2-Ноя-16

Аниме | Rips ·· Рок-Шоу!!# / Шоу Рока!!# / Show by Rock!!# [TV] [01-04 из 12] [Без хардсаба] [RUS(ext), JAP] & [01-02 из 12] [SUB] [2016, Приключения, Музыкальный, Комедия, HDTVRip] [720p] Galfimbul 21465915422 GB 0 0 1477624934

06:22

28-Окт-16

Аниме | Rips ·· Рок-Шоу!!# / Шоу Рока!!# / Show by Rock!!# [TV] [01-03 из 12] [Без хардсаба] [RUS(ext), JAP] & [01-02 из 12] [SUB] [2016, Приключения, Музыкальный, Комедия, HDTVRip] [720p] Galfimbul 15732863691.47 GB 0 0 1477014846

04:54

21-Окт-16

Аниме | Rips ·· Рок-Шоу!!# / Шоу Рока!!# / Show by Rock!!# [TV] [01-02 из 12] [Без хардсаба] [RUS(ext), JAP] & [01 из 12] [SUB] [2016 г., Приключения, Музыкальный, Комедия, HDTVRip] [720p] Galfimbul 10514815361003 MB 0 0 1476204089

19:41

11-Окт-16

Аниме | Rips ·· Рок-Шоу!!# / Шоу Рока!!# / Show by Rock!!# [TV] [01 из 12] [Без хардсаба] [RUS(ext), JAP, SUB] [2016 г., Приключения, Музыкальный, Комедия, HDTVRip] [720p] Galfimbul 571643683545 MB 0 0 1475976416

04:26

9-Окт-16

Аниме | Rips ·· Рок-Шоу!!# / Шоу Рока!!# / Show by Rock!!# [TV] [01 из 12] [Без хардсаба] [RUS(ext), JAP] [2016 г., Приключения, Музыкальный, Комедия, HDTVRip] [720p] Galfimbul 571616318545 MB 0 0 1475604542

21:09

4-Окт-16

Аниме | Rips ·· Рок-Шоу!! / Шоу Рока / Show by Rock!! [TV] [05 из 11] [Без хардсаба] [RUS(ext), JAP, SUB] [2015 г., Приключения, Музыкальный, HDTVRip] [720p] Galfimbul 29385796352.74 GB 0 0 1432433747

05:15

24-Май-15

Аниме | Rips ·· Рок Шоу!! Короче!! / Show by Rock!! Short!! [TV] [12 из 12] [Без хардсаба] [RUS(ext), JAP, SUB] [2016 г., Комедия, Музыкальный, HDTVRip] [720p] Galfimbul 955207372911 MB 0 0 1474950215

07:23

27-Сен-16

Аниме | Rips ·· Рок Шоу!! Короче!! / Show by Rock!! Short!! [TV] [01-11 из 12] [Без хардсаба] [RUS(ext), JAP] & [01-10 из 12] [SUB] [2016 г., Комедия, Музыкальный, HDTVRip] [720p] Galfimbul 897379002856 MB 0 0 1473987045

03:50

16-Сен-16

Аниме | Rips ·· Рок Шоу!! Короче!! / Show by Rock!! Short!! [TV] [01-09 из 12] [Без хардсаба] [JAP, SUB] & [01-08 из 12] [RUS(ext)] [2016 г., Комедия, Музыкальный, HDTVRip] [720p] Galfimbul 753193615718 MB 0 0 1473160824

14:20

6-Сен-16

Еще никто не оставлял запись к записи скачать торрент Рок-Шоу!! Show by Rock!! . Будь первым!

!Обратная связь