Скачать через торрент Воительницы в бикини Bikini Warriors бесплатно Аниме Все серии на русском torrent

Если у вас наблюдаются проблемы со скриншотами, переходом по ссылками, скачиванием торрентов - проблемы в блокировщике рекламы AdBlock. #хорошегоДня!


Статистика раздачи
Размер:  139 MB   |    Зарегистрирован:  2 года 5 месяцев   |    .torrent скачан:  96 раз   |   
Раздают:  1  
   
Загрузка...
 
Автор Сообщение

Galfimbul

avatar Galfimbul


Воительницы в бикини / Bikini Warriors

Страна: Япония
Год выпуска: 2015 г.
Жанр: комедия, фэнтези, этти
Тип: TV
Продолжительность: 12 эп. по 4 мин.
Режиссер: Кудзуя Наоюки
Студия: Feel

Описание: Мир, словно существующий в РПГ, наполнен магией и множеством опасностей. Прекрасные героини, готовые рисковать своим здоровьем и даже жизнями ради защиты слабых и обездоленных. Легендарное оружие и повелитель демонов, против которого оно будет пущено в ход. Думаете, что всё это лишь набор неприлично затасканных клише, которые вы видели на экране уже сотни раз? А вот и нет! Ведь героини наши облачены не в самурайские доспехи, не в рыцарскую броню и даже не в бронелифчики… а в самые настоящие бикини!

Среди красоток, дефилирующих по экрану в поисках лучшего будущего, вас ждут: специалистка ближнего боя Файтер, благородная и утонченная Паладин, слабая телом, но не духом Маг, красотка Даркэльф, имеющая широкий спектр разнообразных навыков, но ко всему относящаяся пренебрежительно, а также умелая в стрельбе и выживании в диких условиях Хантер, и обладающая копьём бога Валькирия. Иными словами, нас ждёт целая толпа ярких личностей не в менее ярких бикини, борющихся за добро и справедливость. Кто знает, может, красота и правда спасёт мир?

Качество: HDTVRip
Тип релиза: Без хардсаба
Формат видео: MP4
Наличие линковки: Нет
Релиз/Автор рипа: Leopard-Raws
Видео: x264 (8 bit), 1280x720, ~4700 Kbps, 23.976 fps
Аудио JAP: AAC, 48000 Hz, ~192 Kbps, 2 ch
Субтитры RUS: ASS, внешние; Перевод: Jenia aka Zub
GeneralComplete name : C:\Documents and Settings\Администратор\Рабочий стол\Bikini Warriors\[Leopard-Raws] Bikini Warriors - 01 RAW (MX 1280x720 x264 AAC).mp4Format : MPEG-4Format profile : Base MediaCodec ID : isomFile size : 139 MiBDuration : 4mn 0sOverall bit rate mode : VariableOverall bit rate : 4 852 KbpsEncoded date : UTC 2015-07-07 18:04:21Tagged date : UTC 2015-07-07 18:04:21

VideoID : 1Format : AVCFormat/Info : Advanced Video CodecFormat profile : High@L4.1Format settings, CABAC : YesFormat settings, ReFrames : 4 framesCodec ID : avc1Codec ID/Info : Advanced Video CodingDuration : 3mn 59sBit rate : 4 658 KbpsMaximum bit rate : 14.5 MbpsWidth : 1 280 pixelsHeight : 720 pixelsDisplay aspect ratio : 16:9Frame rate mode : ConstantFrame rate : 23.976 fpsColor space : YUVChroma subsampling : 4:2:0Bit depth : 8 bitsScan type : ProgressiveBits/(Pixel*Frame) : 0.211Stream size : 133 MiB (96%)Title : 264:fps=23.976@GPAC0.5.1-DEV-rev4929Writing library : x264 core 129 r2245+729M 1a52e03Encoding settings : cabac=1 / ref=4 / deblock=1:1:-1 / analyse=0x3:0x113 / me=umh / subme=9 / psy=1 / fade_compensate=0.00 / psy_rd=1.00:0.00 / mixed_ref=1 / me_range=24 / chroma_me=1 / trellis=2 / 8x8dct=1 / cqm=0 / deadzone=21,11 / fast_pskip=1 / chroma_qp_offset=-2 / threads=8 / lookahead_threads=1 / sliced_threads=0 / nr=0 / decimate=1 / interlaced=0 / bluray_compat=0 / constrained_intra=0 / fgo=0 / bframes=9 / b_pyramid=2 / b_adapt=2 / b_bias=0 / direct=1 / weightb=1 / open_gop=0 / weightp=2 / keyint=240 / keyint_min=24 / scenecut=40 / intra_refresh=0 / rc=crf / mbtree=0 / crf=18.5 / qcomp=0.72 / qpmin=0 / qpmax=69 / qpstep=4 / ip_ratio=1.40 / pb_ratio=1.30 / aq=1:0.85Encoded date : UTC 2015-07-07 18:04:21Tagged date : UTC 2015-07-07 18:04:22Color primaries : BT.709Transfer characteristics : BT.709Matrix coefficients : BT.709

AudioID : 2Format : AACFormat/Info : Advanced Audio CodecFormat profile : LCCodec ID : 40Duration : 4mn 0sBit rate mode : VariableBit rate : 192 KbpsMaximum bit rate : 222 KbpsChannel count : 2 channelsChannel positions : Front: L RSampling rate : 48.0 KHzCompression mode : LossyStream size : 5.50 MiB (4%)Language : JapaneseEncoded date : UTC 2015-07-07 17:16:07Tagged date : UTC 2015-07-07 18:04:22
01. Бронебикини - это броня, а не бикини


Трекер:  [ 08-Июл-2015 04:00 ]

  

Скачать .torrent

Размер .torrent файла 11 KB


Размер: 139 MB
Хэш (hash) релиза: 8635b48457ae4126a061082ff36ca108e4e8a4a7
Подписка на обновления:

Торренты, похожие на Воительницы в бикини Bikini Warriors скачать торрент

Форум Название Автор Размер S L Добавлен
Аниме | Rips ·· Воительницы в бикини / Bikini Warriors [TV+Special] [12+7 из 12+7] [Без хардсаба] [RUS(ext), JAP, SUB] [2015, Приключения, Комедия, Этти, Пародия, BDRip] [1080p] Galfimbul 47465117514.42 GB 0 0 1489239996

16:46

11-Мар-17

Аниме | Rips ·· Воительницы в бикини / Bikini Warriors [OVA] [2 из 2] [Без хардсаба] [RUS(ext), JAP, SUB] [2016, Приключения, Комедия, Этти, Пародия, BDRip] [1080p] Galfimbul 335617775320 MB 0 0 1489224618

12:30

11-Мар-17

Аниме | Rips ·· Воительницы в бикини / Bikini Warriors [OVA+Special] [2+6 из 2+6] [Без хардсаба] [RUS(ext), JAP, SUB] [2016, Приключения, Комедия, Этти, Пародия, BDRip] [720p] Galfimbul 736347003702 MB 0 0 1489091749

23:35

9-Мар-17

Аниме | HD Rips ·· Воительницы в бикини / Bikini Warriors (Кудзуя Наоюки) [TV+Special] [01-12+1 из 12+1] [Без хардсаба] [JAP+SUB] [2015 г., комедия, фэнтези, этти, BDRip] [1080p] Galfimbul 27395789532.55 GB 0 0 1453264158

07:29

20-Янв-16

Аниме | HD Rips ·· Воительницы в бикини / Bikini Warriors (Кудзуя Наоюки) [TV+Special] [01-12+1 из 12+1] [Без хардсаба] [JAP+SUB] [2015 г., комедия, фэнтези, этти, BDRip] [720p] Galfimbul 936809941893 MB 0 0 1453264136

07:28

20-Янв-16

Аниме | Rips ·· Воительницы в бикини / Bikini Warriors [TV] [01-03 из 12] [Без хардсаба] [RUS(int), JAP, SUB] [2015 г., Приключения, Комедия, Этти, HDTVRip] [720p] Galfimbul 335957459320 MB 0 0 1438496951

09:29

2-Авг-15

Еще никто не оставлял запись к записи скачать торрент Воительницы в бикини Bikini Warriors . Будь первым!

!Обратная связь